На всех торрентах на трекере установлена скидка на скачивание в размере 100 процентов(а).
 Возможность скачивания торрента НЕ зависит от ограничений при низком ратио, низком аплоаде, требуемом ратио или требуемом аплоаде.


Начать новую тему Ответить на тему
Статистика раздачи
Размер: 11.5 ГБ | Добавлен: 28 сен 2013, 08:47 | Скачали: 6
Сидеров: 7  [0 байт/сек]    Личеров: 32  [0 байт/сек]
Пред. тема | След. тема 

Автор
Сообщение

СообщениеДобавлено: 28 сен 2013, 08:47 

Информация о фильме
Название: Сфера
Оригинальное название: Sphere
Год выхода: 1998
Жанр: Фантастика, триллер, драма, детектив
Режиссер: Барри Левинсон

В ролях: Дастин Хоффман, Шэрон Стоун, Сэмюэл Л. Джексон, Питер Койот, Лив Шрайбер, Куин Латифа, Марга Гомез, Хьюи Льюис, Бернард Хок, Джеймс Пикенс мл.

О фильме:
На дне океана найден космический корабль. Рядом с находкой сооружается подводная станция, и на нее прибывает команда ученых-специалистов: доктор Норман Гудмэн, доктор Элизабет Гальперин, доктор Гарри Эдамс, доктор Тэд Филдинг и другие коллеги. Возглавляет отряд капитан Хэролд Барнс.
Вскоре ученые обнаруживают внутри корабля гигантский блестящий шар. Им удается проникнуть внутрь сферы, хотя никаких дверей или каких-либо иных проемов не наблюдалось. После этого начались кошмары, потому что сфера материализовывала в реальность сны и желания тех, кто побывал внутри нее…



Страна: США
Студия: Warner Bros. Pictures, Baltimore Pictures, Constant c Productions
Продолжительность: 02:14:13
Перевод: Дублированный + Авторский (одноголосый, закадровый) Юрий Живов + Оригинал


Кодек: x264
Качество: BDRip 1080p (источник: HDCLUB / Blu-ray Remux / 1080p)
Видео: 1920х800 (2.40:1), 10542 Kbps, 23.976 fps, 0.286 bit/pixel
Аудио #1: 48.0 kHz, AC3 Dolby Digital, 3/2 (L,C,R,l,r) + LFE ch, 448 kbps [Дубляж]
Аудио #2: 48.0 kHz, AC3 Dolby Digital, 3/2 (L,C,R,l,r) + LFE ch, 640 kbps [Авторский, Ю. Живов]
Аудио #3: 48.0 kHz, AC3 Dolby Digital, 3/2 (L,C,R,l,r) + LFE ch, 640 kbps [Английский]
Субтитры: Русские, английские [SDH]

Семпл



x264 [info]: frame I:1752 Avg QP:13.26 size:157216
x264 [info]: frame P:64418 Avg QP:15.61 size: 81448
x264 [info]: frame B:126902 Avg QP:17.18 size: 40077
General
Unique ID : 234705507796716301514544803776548687627 (0xB092A2F5743934008EC1DE993A61CF0B)
Complete name : E:Sphere.1998.x264.BDRip.1080p.mkv
Format : Matroska
Format version : Version 2
File size : 11.5 GiB
Duration : 2h 14mn
Overall bit rate : 12.3 Mbps
Encoded date : UTC 2013-09-27 18:41:27
Writing application : mkvmerge v5.8.0 ('No Sleep / Pillow') built on Sep 2 2012 15:37:04
Writing library : libebml v1.2.3 + libmatroska v1.3.0

Video
ID : 1
Format : AVC
Format/Info : Advanced Video Codec
Format profile : High@L4.1
Format settings, CABAC : Yes
Format settings, ReFrames : 5 frames
Codec ID : V_MPEG4/ISO/AVC
Duration : 2h 14mn
Bit rate : 10.5 Mbps
Width : 1 920 pixels
Height : 800 pixels
Display aspect ratio : 2.40:1
Frame rate mode : Constant
Frame rate : 23.976 fps
Color space : YUV
Chroma subsampling : 4:2:0
Bit depth : 8 bits
Scan type : Progressive
Bits/(Pixel*Frame) : 0.286
Stream size : 9.65 GiB (84%)
Writing library : x264 core 138 r2358 9e941d1
Encoding settings : cabac=1 / ref=5 / deblock=1:-3:-3 / analyse=0x3:0x133 / me=tesa / subme=11 / psy=1 / psy_rd=1.00:0.15 / mixed_ref=1 / me_range=32 / chroma_me=1 / trellis=2 / 8x8dct=1 / cqm=0 / deadzone=21,11 / fast_pskip=0 / chroma_qp_offset=-3 / threads=12 / lookahead_threads=1 / sliced_threads=0 / nr=0 / decimate=0 / interlaced=0 / bluray_compat=0 / constrained_intra=0 / bframes=3 / b_pyramid=2 / b_adapt=2 / b_bias=0 / direct=3 / weightb=0 / open_gop=0 / weightp=2 / keyint=240 / keyint_min=23 / scenecut=40 / intra_refresh=0 / rc=2pass / mbtree=0 / bitrate=10542 / ratetol=1.0 / qcomp=0.60 / qpmin=0 / qpmax=69 / qpstep=4 / cplxblur=20.0 / qblur=0.5 / ip_ratio=1.40 / pb_ratio=1.30 / aq=1:1.00
Language : English
Default : Yes
Forced : No

Audio #1
ID : 2
Format : AC-3
Format/Info : Audio Coding 3
Mode extension : CM (complete main)
Format settings, Endianness : Big
Codec ID : A_AC3
Duration : 2h 14mn
Bit rate mode : Constant
Bit rate : 448 Kbps
Channel count : 6 channels
Channel positions : Front: L C R, Side: L R, LFE
Sampling rate : 48.0 KHz
Bit depth : 16 bits
Compression mode : Lossy
Stream size : 430 MiB (4%)
Title : AC3 5.1ch 448 kbps - Дубляж
Language : Russian
Default : Yes
Forced : No

Audio #2
ID : 3
Format : AC-3
Format/Info : Audio Coding 3
Mode extension : CM (complete main)
Format settings, Endianness : Big
Codec ID : A_AC3
Duration : 2h 14mn
Bit rate mode : Constant
Bit rate : 640 Kbps
Channel count : 6 channels
Channel positions : Front: L C R, Side: L R, LFE
Sampling rate : 48.0 KHz
Bit depth : 16 bits
Compression mode : Lossy
Stream size : 614 MiB (5%)
Title : AC3 5.1ch 640 kbps - Авторский, Ю. Живов
Language : Russian
Default : No
Forced : No

Audio #3
ID : 4
Format : AC-3
Format/Info : Audio Coding 3
Mode extension : CM (complete main)
Format settings, Endianness : Big
Codec ID : A_AC3
Duration : 2h 14mn
Bit rate mode : Constant
Bit rate : 640 Kbps
Channel count : 6 channels
Channel positions : Front: L C R, Side: L R, LFE
Sampling rate : 48.0 KHz
Bit depth : 16 bits
Compression mode : Lossy
Stream size : 614 MiB (5%)
Title : AC3 5.1ch 640 kbps - Английский
Language : English
Default : No
Forced : No

Text #1
ID : 5
Format : UTF-8
Codec ID : S_TEXT/UTF8
Codec ID/Info : UTF-8 Plain Text
Title : Русские
Language : Russian
Default : No
Forced : No

Text #2
ID : 6
Format : UTF-8
Codec ID : S_TEXT/UTF8
Codec ID/Info : UTF-8 Plain Text
Title : Английские
Language : English
Default : No
Forced : No

Menu
00:00:00.000 : en:
00:02:52.755 : en:
00:04:47.120 : en:
00:07:20.815 : en:
00:10:08.065 : en:
00:13:25.054 : en:
00:18:28.148 : en:
00:20:14.421 : en:
00:24:32.471 : en:
00:27:04.289 : en:
00:30:23.780 : en:
00:32:40.750 : en:
00:34:39.285 : en:
00:37:25.868 : en:
00:39:49.595 : en:
00:42:33.300 : en:
00:46:14.188 : en:
00:50:44.499 : en:
00:52:29.354 : en:
00:57:09.259 : en:
00:58:29.756 : en:
01:04:11.806 : en:
01:07:30.171 : en:
01:09:45.598 : en:
01:11:51.181 : en:
01:15:41.954 : en:
01:17:33.023 : en:
01:20:56.393 : en:
01:23:28.461 : en:
01:26:42.655 : en:
01:28:38.938 : en:
01:34:18.861 : en:
01:35:50.077 : en:
01:38:50.257 : en:
01:41:51.063 : en:
01:43:59.691 : en:
01:46:06.276 : en:
01:52:37.041 : en:
01:57:23.077 : en:
02:01:19.355 : en:
02:02:59.080 : en:
02:07:05.242 : en:
02:10:32.825 : en:
загрузка...
Правила, инструкции, FAQ!!!
Торрент  Добавлен [28 сен 2013, 08:47] Скачать торрент
Скачать торрент
[ Размер 29.28 КБ / Просмотров 9 ]

Статус  
 
Размер  11.5 ГБ
Приватный: Нет (DHT включён)
.torrent скачан  6
Как залить торрент? | Как скачать Torrent? | Как смотреть и слушать онлайн?  


     Отправить личное сообщение
   
Страница 1 из 1
Показать сообщения за:  Поле сортировки  
Начать новую тему Ответить на тему

   Похожие торренты   Автор   Ответы   Просмотры   Последнее сообщение 
В этой теме нет новых непрочитанных сообщений. Скачать торрент Его игра / He Got Game (1998) BDRip 1080p | P2, A

в форуме 720p | 1080p, Размер: 7.95 ГБ, Здоровье: 100%

Anonymous

0
3|0

83
0

14 янв 2014, 13:04

Anonymous Перейти к последнему сообщению

В этой теме нет новых непрочитанных сообщений. Скачать торрент Вам письмо / You've Got Mail (1998) BDRip 1080p | D, A

в форуме 720p | 1080p, Размер: 14.47 ГБ, Здоровье: 100%

Anonymous

0
1|0

25
0

31 дек 2013, 10:26

Anonymous Перейти к последнему сообщению

В этой теме нет новых непрочитанных сообщений. Скачать торрент Проверен Чёрный пёс / Black Dog (1998) BDRip 1080p | P, P2, A

в форуме 720p | 1080p, Размер: 8.9 ГБ, Здоровье: 100%

Гость

0
10|3

199
39

02 июл 2016, 13:28

Гость Перейти к последнему сообщению

В этой теме нет новых непрочитанных сообщений. Скачать торрент Солдатики / Small Soldiers (1998) BDRip 1080p | P, A

в форуме 720p | 1080p, Размер: 8.66 ГБ, Здоровье: 100%

Anonymous

0
6|0

27
46

24 мар 2014, 10:19

Anonymous Перейти к последнему сообщению

В этой теме нет новых непрочитанных сообщений. Скачать торрент Ливень / Hard Rain (1998) BDRip 1080p

в форуме 720p | 1080p, Размер: 7.75 ГБ, Здоровье: 0%

Anonymous

0
0|0

48
0

15 мар 2014, 21:11

Anonymous Перейти к последнему сообщению



Сейчас этот форум просматривают: нет зарегистрированных пользователей и гости: 1


Вы не можете начинать темы
Вы не можете отвечать на сообщения
Вы не можете редактировать свои сообщения
Вы не можете удалять свои сообщения
Вы не можете добавлять вложения

Перейти:  

!ВНИМАНИЕ!
 Ресурс не предоставляет электронные версии произведений, а занимается лишь коллекционированием и каталогизацией ссылок, присылаемых и публикуемых на форуме нашими читателями. Если вы являетесь правообладателем какого-либо представленного материала и не желаете чтобы ссылка на него находилась в нашем каталоге, свяжитесь с нами и мы незамедлительно удалим её. Файлы для обмена на трекере предоставлены пользователями сайта, и администрация не несёт ответственности за их содержание. Просьба не заливать файлы, защищенные авторскими правами, а также файлы нелегального содержания!