На всех торрентах на трекере установлена скидка на скачивание в размере 100 процентов(а).
 Возможность скачивания торрента НЕ зависит от ограничений при низком ратио, низком аплоаде, требуемом ратио или требуемом аплоаде.


Начать новую тему Ответить на тему
Статистика раздачи
Размер: 1.45 ГБ | Добавлен: 28 сен 2013, 08:35 | Скачали: 1
Сидеров: 12  [0 байт/сек]    Личеров: 0  [0 байт/сек]
Пред. тема | След. тема 

Автор
Сообщение

СообщениеДобавлено: 28 сен 2013, 08:35 

Название: Опустевший город
Оригинальное название: Reign Over Me
Год выхода: 2007
Жанр: драма
Режиссер: Майк Байндер

В ролях: Адам Сэндлер, Дон Чидл, Джада Пинкетт Смит, Лив Тайлер, Саффрон Берроуз, Дональд Сазерленд, Роберт Клейн, Мелинда Диллон, Майк Байндер, Джонатан Бэнкс

О фильме: Чарли Файнман и Алан Джонсон когда-то вместе учились в колледже и делили одну комнату в общежитии. Спустя годы они встречаются вновь и возобновляют дружеские отношения. Судьба по-разному обошлась с ними.

Чарли, потерявший во время терактов 11 сентября жену и детей, поставил на своей жизни крест. Алан же стал хорошим дантистом и примерным семьянином. Случайная встреча становится для них переломным моментом в жизни, поскольку и тот, и другой как никогда испытывают потребность в преданном друге…



Страна: США
Продолжительность: 02:04:33
Перевод: Профессиональный (многоголосый закадровый)


Кодек: h.264
Качество: BDRip-AVC
Видео: 1024x428 (2,40:1), 23.976 fps, 1281 kbps, 0.122 bit/pixel
Звук: 48 kHz, AC3 5.1, 384.00 kbps

&

Общее
Уникальный идентификатор : 226226658464718806757871177903629251136 (0xAA31AB694E3EAF979277E9D37E71B240)
Полное имя : D:Reign Over Me.2007.BDRip-AVC.mkv
Формат : Matroska
Версия формата : Version 2
Размер файла : 1,45 Гбайт
Продолжительность : 2 ч. 4 м.
Общий поток : 1665 Кбит/сек
Название фильма : Опустевший город / Reign Over Me (2007) BDRip-AVC от Rulya74
Дата кодирования : UTC 2012-12-01 15:53:25
Программа кодирования : mkvmerge v5.7.0 ('The Whirlwind') built on Jul 8 2012 20:08:51
Библиотека кодирования : libebml v1.2.3 + libmatroska v1.3.0

Видео
Идентификатор : 1
Формат : AVC
Формат/Информация : Advanced Video Codec
Профиль формата : High@L4.1
Параметр CABAC формата : Да
Параметр ReFrames формата : 10 кадров
Идентификатор кодека : V_MPEG4/ISO/AVC
Продолжительность : 2 ч. 4 м.
Битрейт : 1281 Кбит/сек
Ширина : 1024 пикселя
Высота : 428 пикселей
Соотношение сторон : 2,40:1
Частота кадров : 23,976 кадра/сек
Цветовое пространство : YUV
Субдискретизация насыщенности : 4:2:0
Битовая глубина : 8 бит
Тип развёртки : Прогрессивная
Бит/(Пиксели*Кадры) : 0.122
Размер потока : 1,09 Гбайт (75%)
Библиотека кодирования : x264 core 129 r2230 1cffe9f
Настройки программы : cabac=1 / ref=10 / deblock=1:-2:-1 / analyse=0x3:0x133 / me=umh / subme=10 / psy=1 / psy_rd=1.08:0.04 / mixed_ref=1 / me_range=48 / chroma_me=1 / trellis=2 / 8x8dct=1 / cqm=0 / deadzone=21,11 / fast_pskip=0 / chroma_qp_offset=-3 / threads=6 / lookahead_threads=1 / sliced_threads=0 / nr=0 / decimate=1 / interlaced=0 / bluray_compat=0 / constrained_intra=0 / bframes=7 / b_pyramid=2 / b_adapt=2 / b_bias=0 / direct=3 / weightb=1 / open_gop=0 / weightp=2 / keyint=240 / keyint_min=23 / scenecut=40 / intra_refresh=0 / rc_lookahead=40 / rc=2pass / mbtree=1 / bitrate=1281 / ratetol=1.0 / qcomp=0.60 / qpmin=10 / qpmax=51 / qpstep=4 / cplxblur=20.0 / qblur=0.5 / ip_ratio=1.40 / aq=2:1.00
Default : Да
Forced : Нет

Аудио
Идентификатор : 2
Формат : AC-3
Формат/Информация : Audio Coding 3
Расширение режима : CM (complete main)
Идентификатор кодека : A_AC3
Продолжительность : 2 ч. 4 м.
Вид битрейта : Постоянный
Битрейт : 384 Кбит/сек
Каналы : 6 каналов
Расположение каналов : Front: L C R, Side: L R, LFE
Частота : 48,0 КГц
Битовая глубина : 16 бит
Метод сжатия : С потерями
Размер потока : 342 Мбайт (23%)
Заголовок : Многоголосый закадровый
Язык : Russian
Default : Да
Forced : Нет

загрузка...
Правила, инструкции, FAQ!!!
Торрент  Добавлен [28 сен 2013, 08:35] Скачать торрент
Скачать торрент
[ Размер 14.9 КБ / Просмотров 9 ]

Статус  
 
Размер  1.45 ГБ
Приватный: Нет (DHT включён)
.torrent скачан  1
Как залить торрент? | Как скачать Torrent? | Как смотреть и слушать онлайн?  


     Отправить личное сообщение
   
Страница 1 из 1
Показать сообщения за:  Поле сортировки  
Начать новую тему Ответить на тему

   Похожие торренты   Автор   Ответы   Просмотры   Последнее сообщение 
В этой теме нет новых непрочитанных сообщений. Скачать торрент Проверен (Power Metal) 7th Reign - 2007 - 7th Reign; 2009 - Fallen Empires - 2007-2009, MP3, 320 kbps

в форуме Heavy, Power, Progressive (Metal), Размер: 266.49 МБ, Здоровье: 0%

Anonymous

0
0|0

0
0

09 окт 2016, 18:22

Anonymous Перейти к последнему сообщению

В этой теме нет новых непрочитанных сообщений. Скачать торрент Город бога 2 / Cidade dos Homens (Паоло Морелли / Paulo Morelli) [2007, Бразилия, драма, криминал, BDRip] MVO (R5)

в форуме Драмы, Мелодрамы, Размер: 1.46 ГБ, Здоровье: 0%

Anonymous

0
0|0

21
0

06 фев 2014, 11:45

Anonymous Перейти к последнему сообщению

В этой теме нет новых непрочитанных сообщений. Скачать торрент Проверен (Power Metal) Joe Stump's Reign of Terror (The Reign of Terror) - Discography (Дискография) - 5 CD - 1995-2002, MP3, 320 kbps

в форуме Heavy, Power, Progressive (Metal), Размер: 840.64 МБ, Здоровье: 0%

Anonymous

0
0|0

0
0

09 окт 2016, 15:16

Anonymous Перейти к последнему сообщению

В этой теме нет новых непрочитанных сообщений. Скачать торрент Проверен (Psychedelic rock) Reign Ghost - Reign Ghost (1969) - 2004, FLAC (tracks+.cue), lossless

в форуме Progressive & Art-Rock, Размер: 264.52 МБ, Здоровье: 100%

Anonymous

0
2|1

18
0

01 сен 2016, 17:25

Anonymous Перейти к последнему сообщению

В этой теме нет новых непрочитанных сообщений. Скачать торрент Проверен (Symphonic Metal) Reign Of Sirius - Reign Of Sirius - One Child's Game - 2012, MP3, 320 kbps

в форуме Heavy, Power, Progressive (Metal), Размер: 67.41 МБ, Здоровье: 0%

Anonymous

0
0|0

0
0

09 окт 2016, 15:43

Anonymous Перейти к последнему сообщению



Сейчас этот форум просматривают: нет зарегистрированных пользователей и гости: 2


Вы не можете начинать темы
Вы не можете отвечать на сообщения
Вы не можете редактировать свои сообщения
Вы не можете удалять свои сообщения
Вы не можете добавлять вложения

Перейти:  

!ВНИМАНИЕ!
 Ресурс не предоставляет электронные версии произведений, а занимается лишь коллекционированием и каталогизацией ссылок, присылаемых и публикуемых на форуме нашими читателями. Если вы являетесь правообладателем какого-либо представленного материала и не желаете чтобы ссылка на него находилась в нашем каталоге, свяжитесь с нами и мы незамедлительно удалим её. Файлы для обмена на трекере предоставлены пользователями сайта, и администрация не несёт ответственности за их содержание. Просьба не заливать файлы, защищенные авторскими правами, а также файлы нелегального содержания!