На всех торрентах на трекере установлена скидка на скачивание в размере 100 процентов(а).
 Возможность скачивания торрента НЕ зависит от ограничений при низком ратио, низком аплоаде, требуемом ратио или требуемом аплоаде.


Начать новую тему Ответить на тему
Статистика раздачи
Размер: 4.37 ГБ | Добавлен: 28 сен 2013, 08:32 | Скачали: 0
Сидеров: 8  [0 байт/сек]    Личеров: 1  [0 байт/сек]
Пред. тема | След. тема 

Автор
Сообщение

СообщениеДобавлено: 28 сен 2013, 08:32 

Информация о фильме
    Русское название: Опустевший город
    Оригинальное название: Reign Over Me
    Год выхода: 2007
    Жанр: Драма
    Режиссер: Майк Байндер
    Выпущено: США
    Продолжительность: 02:04:33
    Перевод: Профессиональный (многоголосый закадровый)
    В ролях: Адам Сэндлер, Дон Чидл, Джада Пинкетт Смит, Лив Тайлер, Саффрон Берроуз, Сисили Тайсон, Роберт Клайн, Мелинда Диллон, Камиль ЛаШе Смит, Майк Байндер, Тед Рэйми, Имани Хаким, Пола Ньюсам, Рае Аллен, Пол Батлер, Джон де Лэнси, Джонатан Бэнкс, Дебора Оффнер, Рэйчел Паркер, Ник Тэйлор, Доналд Сазерленд


Сюжет фильма
    Чарли Файнман и Алан Джонсон когда-то вместе учились в колледже и делили одну комнату в общежитии. Спустя годы они встречаются вновь и возобновляют дружеские отношения. Судьба по-разному обошлась с ними.
    Чарли, потерявший во время терактов 11 сентября жену и детей, поставил на своей жизни крест. Алан же стал хорошим дантистом и примерным семьянином. Случайная встреча становится для них переломным моментом в жизни, поскольку и тот, и другой как никогда испытывают потребность в преданном друге…


Файл
    Качество: BDRip 720p (исходник Blu-ray Disc)
    Видео: 1280x534, 3936 Кбит/сек, 23,976 кадр/сек, AVC, x264, High@L4.1, 2.40:1, 0.240 Бит/[Пиксели*Кадры], 2pass
    Аудио 1: AC-3, 448 Кбит/сек, 6 канала(ов), 48,0 КГц - Многоголосый закадровый / Русский
    Аудио 2: AC-3, 640 Кбит/сек, 6 канала(ов), 48,0 КГц - Оригинал / Английский
    Субтитры: Русские | Полные, Английские | Полные
    Чаптеры: Есть



Автор Рипа:



Format : Matroska
Format version : Version 2
File size : 4.37 GiB
Duration : 2h 4mn
Overall bit rate : 5 023 Kbps
Movie name : Опустевший город.(2007).BDRip.720p.[envy]
Encoded date : UTC 2013-09-27 19:32:53
Writing application : mkvmerge v5.8.0 ('No Sleep / Pillow') built on Sep 2 2012 15:37:04
Writing library : libebml v1.2.3 + libmatroska v1.3.0

Video
ID : 1
Format : AVC
Format/Info : Advanced Video Codec
Format profile : High@L4.1
Format settings, CABAC : Yes
Format settings, ReFrames : 11 frames
Codec ID : V_MPEG4/ISO/AVC
Duration : 2h 4mn
Bit rate : 3 936 Kbps
Width : 1 280 pixels
Height : 534 pixels
Display aspect ratio : 2.40:1
Frame rate mode : Constant
Frame rate : 23.976 fps
Color space : YUV
Chroma subsampling : 4:2:0
Bit depth : 8 bits
Scan type : Progressive
Bits/(Pixel*Frame) : 0.240
Stream size : 3.34 GiB (76%)
Title : Опустевший город.(2007).BDRip.720p.[envy]
Writing library : x264 core 138 r2358 9e941d1
Encoding settings : cabac=1 / ref=11 / deblock=1:-3:-3 / analyse=0x3:0x133 / me=umh / subme=11 / psy=1 / psy_rd=1.00:0.00 / mixed_ref=1 / me_range=32 / chroma_me=1 / trellis=2 / 8x8dct=1 / cqm=0 / deadzone=21,11 / fast_pskip=0 / chroma_qp_offset=-2 / threads=12 / lookahead_threads=1 / sliced_threads=0 / nr=0 / decimate=1 / interlaced=0 / bluray_compat=0 / constrained_intra=0 / bframes=6 / b_pyramid=2 / b_adapt=2 / b_bias=0 / direct=3 / weightb=1 / open_gop=0 / weightp=2 / keyint=240 / keyint_min=23 / scenecut=40 / intra_refresh=0 / rc=2pass / mbtree=0 / bitrate=3936 / ratetol=2.0 / qcomp=0.60 / qpmin=0 / qpmax=69 / qpstep=4 / cplxblur=20.0 / qblur=0.5 / ip_ratio=1.40 / pb_ratio=1.30 / aq=1:0.90
Language : English
Default : Yes
Forced : No

Audio #1
ID : 2
Format : AC-3
Format/Info : Audio Coding 3
Mode extension : CM (complete main)
Format settings, Endianness : Big
Codec ID : A_AC3
Duration : 2h 4mn
Bit rate mode : Constant
Bit rate : 448 Kbps
Channel(s) : 6 channels
Channel positions : Front: L C R, Side: L R, LFE
Sampling rate : 48.0 KHz
Bit depth : 16 bits
Compression mode : Lossy
Stream size : 399 MiB (9%)
Title : Многоголосый закадровый
Language : Russian
Default : Yes
Forced : No

Audio #2
ID : 3
Format : AC-3
Format/Info : Audio Coding 3
Mode extension : CM (complete main)
Format settings, Endianness : Big
Codec ID : A_AC3
Duration : 2h 4mn
Bit rate mode : Constant
Bit rate : 640 Kbps
Channel(s) : 6 channels
Channel positions : Front: L C R, Side: L R, LFE
Sampling rate : 48.0 KHz
Bit depth : 16 bits
Compression mode : Lossy
Stream size : 570 MiB (13%)
Title : Оригинал
Language : English
Default : No
Forced : No

Text #1
ID : 4
Format : UTF-8
Codec ID : S_TEXT/UTF8
Codec ID/Info : UTF-8 Plain Text
Title : Полные
Language : Russian
Default : No
Forced : No

Text #2
ID : 5
Format : UTF-8
Codec ID : S_TEXT/UTF8
Codec ID/Info : UTF-8 Plain Text
Title : Full
Language : English
Default : No
Forced : No

Menu
00:00:00.000 : :Chapter 01
00:08:19.624 : :Chapter 02
00:15:49.740 : :Chapter 03
00:20:49.706 : :Chapter 04
00:27:46.498 : :Chapter 05
00:34:52.090 : :Chapter 06
00:42:20.955 : :Chapter 07
00:47:02.778 : :Chapter 08
00:55:57.437 : :Chapter 09
01:00:21.117 : :Chapter 10
01:12:00.566 : :Chapter 11
01:19:09.995 : :Chapter 12
01:31:12.341 : :Chapter 13
01:40:52.963 : :Chapter 14
01:50:58.985 : :Chapter 15

загрузка...
Правила, инструкции, FAQ!!!
Торрент  Добавлен [28 сен 2013, 08:32] Скачать торрент
Скачать торрент
[ Размер 22.28 КБ / Просмотров 13 ]

Статус  
 
Размер  4.37 ГБ
Приватный: Нет (DHT включён)
.torrent скачан  0
Как залить торрент? | Как скачать Torrent? | Как смотреть и слушать онлайн?  


     Отправить личное сообщение
   
Страница 1 из 1
Показать сообщения за:  Поле сортировки  
Начать новую тему Ответить на тему

   Похожие торренты   Автор   Ответы   Просмотры   Последнее сообщение 
В этой теме нет новых непрочитанных сообщений. Скачать торрент Проверен Власть огня / Reign of Fire (2002) BDRip 720p | D | Лицензия

в форуме 720p | 1080p, Размер: 7.74 ГБ, Здоровье: 100%

Anonymous

0
5|0

40
15

29 июн 2014, 22:42

Anonymous Перейти к последнему сообщению

В этой теме нет новых непрочитанных сообщений. Скачать торрент Проверен (Power Metal) 7th Reign - 2007 - 7th Reign; 2009 - Fallen Empires - 2007-2009, MP3, 320 kbps

в форуме Heavy, Power, Progressive (Metal), Размер: 266.49 МБ, Здоровье: 0%

Anonymous

0
0|0

0
0

09 окт 2016, 18:22

Anonymous Перейти к последнему сообщению

В этой теме нет новых непрочитанных сообщений. Скачать торрент Проверен Город на границе / Bordertown (2006) BDRip 720p

в форуме 720p | 1080p, Размер: 3.36 ГБ, Здоровье: 100%

Anonymous

0
19|16

73
95

18 сен 2014, 14:02

Anonymous Перейти к последнему сообщению

В этой теме нет новых непрочитанных сообщений. Скачать торрент Проверен Город потерянных детей / La cité des enfants perdus (1995) BDRip 720p

в форуме 720p | 1080p, Размер: 5.09 ГБ, Здоровье: 100%

Anonymous

0
13|0

28
158

02 июл 2014, 10:29

Anonymous Перейти к последнему сообщению

В этой теме нет новых непрочитанных сообщений. Скачать торрент Проверен Город звука / Sound City (Дэвид Грол/ David Grohl) [2013, Документальный, музыкальный, BDRip 720p]

в форуме Концерты (HD-Video), Размер: 7.21 ГБ, Здоровье: 100%

Anonymous

0
23|8

43
1

29 апр 2015, 19:29

Anonymous Перейти к последнему сообщению



Сейчас этот форум просматривают: нет зарегистрированных пользователей и гости: 3


Вы не можете начинать темы
Вы не можете отвечать на сообщения
Вы не можете редактировать свои сообщения
Вы не можете удалять свои сообщения
Вы не можете добавлять вложения

Перейти:  

!ВНИМАНИЕ!
 Ресурс не предоставляет электронные версии произведений, а занимается лишь коллекционированием и каталогизацией ссылок, присылаемых и публикуемых на форуме нашими читателями. Если вы являетесь правообладателем какого-либо представленного материала и не желаете чтобы ссылка на него находилась в нашем каталоге, свяжитесь с нами и мы незамедлительно удалим её. Файлы для обмена на трекере предоставлены пользователями сайта, и администрация не несёт ответственности за их содержание. Просьба не заливать файлы, защищенные авторскими правами, а также файлы нелегального содержания!