На всех торрентах на трекере установлена скидка на скачивание в размере 100 процентов(а).
 Возможность скачивания торрента НЕ зависит от ограничений при низком ратио, низком аплоаде, требуемом ратио или требуемом аплоаде.


Начать новую тему Ответить на тему
Статистика раздачи
Размер: 1.45 ГБ | Добавлен: 26 сен 2013, 10:08 | Скачали: 0
Сидеров: 0  [0 байт/сек]    Личеров: 0  [0 байт/сек]
Пред. тема | След. тема 

Автор
Сообщение

СообщениеДобавлено: 26 сен 2013, 10:08 

Название: Кейт и Лео
Оригинальное название: Kate & Leopold
Год выхода: 2001
Жанр: фэнтези, мелодрама, комедия
Режиссер: Джеймс Мэнголд

В ролях: Мег Райан, Хью Джекман, Лив Шрайбер, Брекин Мейер, Наташа Лионн, Брэдли Уитфорд, Пэкстон Уайтхед, Сполдинг Грей, Джош Стэмберг, Мэттью Суссман, Анна Каменкова, Валерий Сторожик, Олег Куценко, Андрей Бархударов, Марианна Шульц...

О фильме: Сквозь прореху во времени Лео, герцог Олбанский, попадает в будущее, а точнее — в современный Нью-Йорк. Обаятельный джентльмен XIX столетия неожиданно оказывается в стремительном мире, где успешно завоевывает высоты деловая женщина — Кейт Маккей.

Невероятное случилось, и они встретились! Теперь Лео нельзя оставлять без присмотра ни на минуту! Во всяком случае, до тех пор, пока он не сможет вернуться обратно…



Страна: США
Продолжительность: 01:58:21
Перевод: Дублированный

Кодек: x.264
Качество: BDRip-AVC
Видео: 960x544 (16:9), 23,976 fps, 1564 kbps, 0.125 bit/pixel
Звук: 48 kHz, AC3 Dolby Digital, 2 ch, ~192.00 kbps
Субтитры: Русские, Английские (отключаемые)

&

Общее
Уникальный идентификатор : 246294192283266944782701350356697909556 (0xB94A89379AA5EEE8A6A51DA6FD8A8934)
Полное имя : D:Kate & Leopold.2001.BDRip-AVC.mkv
Формат : Matroska
Версия формата : Version 4 / Version 2
Размер файла : 1,45 Гбайт
Продолжительность : 1 ч. 58 м.
Общий поток : 1757 Кбит/сек
Название фильма : Кейт и Лео / Kate & Leopold (2001) BDRip-AVC rip by Rulya74
Дата кодирования : UTC 2013-09-26 05:55:32
Программа кодирования : mkvmerge v6.2.0 ('Promised Land') built on Apr 28 2013 12:22:01
Библиотека кодирования : libebml v1.3.0 + libmatroska v1.4.0

Видео
Идентификатор : 1
Формат : AVC
Формат/Информация : Advanced Video Codec
Профиль формата : High@L4.1
Параметр CABAC формата : Да
Параметр ReFrames формата : 8 кадров
Идентификатор кодека : V_MPEG4/ISO/AVC
Продолжительность : 1 ч. 58 м.
Битрейт : 1564 Кбит/сек
Ширина : 960 пикселей
Высота : 544 пикселя
Соотношение сторон : 16:9
Режим частоты кадров : Постоянный
Частота кадров : 23,976 кадра/сек
Цветовое пространство : YUV
Субдискретизация насыщенности : 4:2:0
Битовая глубина : 8 бит
Тип развёртки : Прогрессивная
Бит/(Пиксели*Кадры) : 0.125
Размер потока : 1,26 Гбайт (87%)
Библиотека кодирования : x264 core 133 r2334 a3ac64b
Настройки программы : cabac=1 / ref=8 / deblock=1:-3:-3 / analyse=0x3:0x113 / me=umh / subme=9 / psy=1 / psy_rd=1.00:0.00 / mixed_ref=1 / me_range=32 / chroma_me=1 / trellis=2 / 8x8dct=1 / cqm=0 / deadzone=21,11 / fast_pskip=0 / chroma_qp_offset=-2 / threads=12 / lookahead_threads=1 / sliced_threads=0 / nr=0 / decimate=1 / interlaced=0 / bluray_compat=0 / constrained_intra=0 / bframes=5 / b_pyramid=2 / b_adapt=2 / b_bias=0 / direct=3 / weightb=1 / open_gop=0 / weightp=2 / keyint=240 / keyint_min=23 / scenecut=40 / intra_refresh=0 / rc_lookahead=40 / rc=2pass / mbtree=1 / bitrate=1564 / ratetol=1.0 / qcomp=0.60 / qpmin=10 / qpmax=69 / qpstep=4 / cplxblur=20.0 / qblur=0.5 / vbv_maxrate=62500 / vbv_bufsize=78125 / nal_hrd=none / ip_ratio=1.40 / aq=2:1.00
Default : Да
Forced : Нет

Аудио
Идентификатор : 2
Формат : AC-3
Формат/Информация : Audio Coding 3
Расширение режима : CM (complete main)
Параметр Endianness формата : Big
Идентификатор кодека : A_AC3
Продолжительность : 1 ч. 58 м.
Вид битрейта : Постоянный
Битрейт : 192 Кбит/сек
Каналы : 2 канала
Расположение каналов : Front: L R
Частота : 48,0 КГц
Битовая глубина : 16 бит
Метод сжатия : С потерями
Размер потока : 163 Мбайт (11%)
Заголовок : Дублированный
Язык : Russian
Default : Да
Forced : Нет

Текст #1
Идентификатор : 3
Формат : UTF-8
Идентификатор кодека : S_TEXT/UTF8
Идентификатор кодека/Информация : UTF-8 Plain Text
Язык : Russian
Default : Да
Forced : Нет

Текст #2
Идентификатор : 4
Формат : UTF-8
Идентификатор кодека : S_TEXT/UTF8
Идентификатор кодека/Информация : UTF-8 Plain Text
Язык : English
Default : Нет
Forced : Нет

загрузка...
Правила, инструкции, FAQ!!!
Торрент  Добавлен [26 сен 2013, 10:08] Скачать торрент
Скачать торрент
[ Размер 14.94 КБ / Просмотров 16 ]

Статус  
 
Размер  1.45 ГБ
Приватный: Нет (DHT включён)
.torrent скачан  0
Как залить торрент? | Как скачать Torrent? | Как смотреть и слушать онлайн?  


     Отправить личное сообщение
   
Страница 1 из 1
Показать сообщения за:  Поле сортировки  
Начать новую тему Ответить на тему

   Похожие торренты   Автор   Ответы   Просмотры   Последнее сообщение 
В этой теме нет новых непрочитанных сообщений. Скачать торрент Кейт и Лео / Kate & Leopold (Джеймс Мэнголд / James Mangold) [2001 г., Комедия, Любовный роман, HDRip] Dub

в форуме Комедии, Размер: 746.52 МБ, Здоровье: 0%

Anonymous

0
0|0

43
0

22 апр 2014, 11:48

Anonymous Перейти к последнему сообщению

В этой теме нет новых непрочитанных сообщений. Скачать торрент Проверен Kate Mosse / Кейт Мосс - Labyrinth / Лабиринт [2007, FB2/RTF/PDF, RUS]

в форуме Детективы и Боевики, Размер: 5.24 МБ, Здоровье: 100%

Anonymous

0
5|1

0
0

09 сен 2016, 00:06

Anonymous Перейти к последнему сообщению

В этой теме нет новых непрочитанных сообщений. Скачать торрент Проверен Kate Mosse / Кейт Мосс - Sepulchre / Святилище [2010, FB2/RTF/PDF, RUS]

в форуме Детективы и Боевики, Размер: 5.62 МБ, Здоровье: 100%

Anonymous

0
5|1

2
0

09 сен 2016, 00:07

Anonymous Перейти к последнему сообщению

В этой теме нет новых непрочитанных сообщений. Скачать торрент Проверен Kate Emerson / Кейт Эмерсон - The King’s Damsel / Отказать королю [2013, DjVu, RUS]

в форуме Женский роман, Размер: 13.49 МБ, Здоровье: 100%

Anonymous

0
2|1

1
0

28 авг 2016, 20:34

Anonymous Перейти к последнему сообщению

В этой теме нет новых непрочитанных сообщений. Скачать торрент Проверен Kate Shirazi / Кейт Ширази - Cupcake Magic: Little Cakes with Attitude / Магия кексов [2008, PDF, ENG]

в форуме Кулинария, Размер: 26.16 МБ, Здоровье: 0%

Anonymous

0
0|0

0
0

18 окт 2016, 23:55

Anonymous Перейти к последнему сообщению



Сейчас этот форум просматривают: нет зарегистрированных пользователей и гости: 4


Вы не можете начинать темы
Вы не можете отвечать на сообщения
Вы не можете редактировать свои сообщения
Вы не можете удалять свои сообщения
Вы не можете добавлять вложения

Перейти:  

!ВНИМАНИЕ!
 Ресурс не предоставляет электронные версии произведений, а занимается лишь коллекционированием и каталогизацией ссылок, присылаемых и публикуемых на форуме нашими читателями. Если вы являетесь правообладателем какого-либо представленного материала и не желаете чтобы ссылка на него находилась в нашем каталоге, свяжитесь с нами и мы незамедлительно удалим её. Файлы для обмена на трекере предоставлены пользователями сайта, и администрация не несёт ответственности за их содержание. Просьба не заливать файлы, защищенные авторскими правами, а также файлы нелегального содержания!