На всех торрентах на трекере установлена скидка на скачивание в размере 100 процентов(а).
 Возможность скачивания торрента НЕ зависит от ограничений при низком ратио, низком аплоаде, требуемом ратио или требуемом аплоаде.


Начать новую тему Ответить на тему
Статистика раздачи
Размер: 7.75 ГБ | Добавлен: 26 сен 2013, 08:54 | Скачали: 0
Сидеров: 0  [0 байт/сек]    Личеров: 0  [0 байт/сек]
Пред. тема | След. тема 

Автор
Сообщение

СообщениеДобавлено: 26 сен 2013, 08:54 

Не грози южному централу, попивая сок у себя в квартале

Don't Be a Menace to South Central While Drinking Your Juice in the Hood

«Finally, the movie that proves that Justice isn't always Poetic, Jungle Fever isn't always pretty, and Higher Learning can be a waste of time.»




Год выпуска: 1996
Страна: США
Жанр: комедия, криминал
Продолжительность: 01:28:52
Перевод: Профессиональный (многоголосый закадровый)
Одноголосый закадровый Пучков(Гоблин)
Одноголосый закадровый Санаев(ранний перевод)
Украинский профессиональный (многоголосый закадровый)

Субтитры: Russian (UTF-8), English (UTF-8)

Режиссер: Пэрис Барклай
Сценарий: Шон Уайанс, Марлон Уайанс, Фил Боман
Продюсер: Эрик Л. Голд, Кинен Айвори Уайанс, Марк Бёрг, ...
Оператор: Расс Брандт
Композитор: Джон Барнс
Художник: Аарон Осборн, Рейко Кобаяси, Валари Адамс, ...
Монтаж: Маршалл Харви, Уильям Янг

В ролях: Шон Уайанс / Shawn Wayans (Ashtray), Марлон Уайанс / Marlon Wayans (Loc Dog), Трэйси Черелл Джонс / Tracey Cherelle Jones (Dashiki), Крис Спенсер / Chris Spencer (Preach), Сули МакКалло / Suli McCullough (Crazy Legs), Даррел Хит / Darrel Heath (в титрах: Darrell Heath) (Toothpick), Хелен Мартин / Helen Martin (Loc Dog's Grandma), Айзиа Барнс / Isaiah Barnes (Doo Rag), Ламард Дж. Тейт / Lahmard J. Tate (в титрах: Lahmard Tate) (Ashtray's Father), Кинен Айвори Уайанс / Keenen Ivory Wayans (Mailman)

Описание: Молодой афроамериканец по прозвищу Пепельница переезжает в Южный Централ, Лос-Анджелес к своему отцу. Пепельница гордится тем, что они с отцом выглядят ровесниками, это, по его мнению, «очень круто». А ещё, он старше своего папы на два года. Гордится он и своей бабушкой, которая в свои-то преклонные годы покуривает и не стесняется крепких словечек. Вскоре Пепельница встречается со своим кузеном по прозвищу Лок Дог. Этот парень — гангстер, в его личном арсенале не только пистолеты и автомат, но и ядерная боеголовка советского производства — «для самозащиты». Пепельница должен выбрать свой дальнейший путь в жизни: он может быть «просто хорошим чернокожим» или стать «опасным чернокожим», примкнув к банде своего кузена.

Сборы в США: $20 109 115
Зрители: США 4.55 млн , Франция 163.5 тыс. , Германия 55.1 тыс.

Премьера (мир): 12 января 1996, ...
Релиз на DVD: 29 марта 2000, «West Video»,
Рейтинг MPAA: Лицам до 17 лет обязательно присутствие взрослого



Качество: BDRip 1080р
Формат: MKV
Видео кодек: AVC
Аудио кодеk: AC3
Видео: 1920x1080 (16:9), 23.976 fps, AVC, 10.6 Mbps

Аудио #1: AC3, 384 Kbps, 48.0 KHz, 6 ch (МVO - West Video)
Аудио #2: AC3, 384 Kbps, 48.0 KHz, 6 ch (Авторский - Пучков(Гоблин))
Аудио #3: AC3, 384 Kbps, 48.0 KHz, 6 ch (Авторский - Санаев(ранний перевод))
Аудио #4: AC3, 384 Kbps, 48.0 KHz, 6 ch Ukr.(MVO - ICTV)
Аудио #5: AC3, 384 Kbps, 48.0 KHz, 6 ch (English)





Лог:
- x264 [info]: frame I:854 Avg QP:17.94 size:149616
- x264 [info]: frame P:29658 Avg QP:18.83 size: 80820
- x264 [info]: frame B:97340 Avg QP:20.06 size: 46324

General
Complete name : Ne.Grozi.Yuzhnomu.Centralu.1996.BDRip.1080p.mkv
Format : Matroska
File size : 7.75 GiB
Duration : 1h 28mn
Overall bit rate : 12.4 Mbps
Encoded date : UTC 2013-09-25 17:08:00
Writing application : mkvmerge v6.3.0 ('You can't stop me!') built on Jun 28 2013 20:09:41
Writing library : libebml v1.3.0 + libmatroska v1.4.0

Video
ID : 1
Format : AVC
Format/Info : Advanced Video Codec
Format profile : High@L4.1
Format settings, CABAC : Yes
Format settings, ReFrames : 4 frames
Format settings, GOP : N=15
Muxing mode : Container profile=Unknown@4.1
Codec ID : V_MPEG4/ISO/AVC
Duration : 1h 28mn
Bit rate : 10.6 Mbps
Width : 1 920 pixels
Height : 1 080 pixels
Display aspect ratio : 16:9
Frame rate : 23.976 fps
Color space : YUV
Chroma subsampling : 4:2:0
Bit depth : 8 bits
Scan type : Progressive
Bits/(Pixel*Frame) : 0.213
Stream size : 6.40 GiB (83%)
Writing library : x264 core 138 r2358 9e941d1
Encoding settings : cabac=1 / ref=4 / deblock=1:-1:-1 / analyse=0x3:0x133 / me=umh / subme=10 / psy=1 / psy_rd=1.00:0.00 / mixed_ref=1 / me_range=32 / chroma_me=1 / trellis=2 / 8x8dct=1 / cqm=0 / deadzone=21,11 / fast_pskip=0 / chroma_qp_offset=-2 / threads=6 / lookahead_threads=1 / sliced_threads=0 / nr=0 / decimate=1 / interlaced=0 / bluray_compat=0 / constrained_intra=0 / bframes=10 / b_pyramid=2 / b_adapt=2 / b_bias=0 / direct=3 / weightb=1 / open_gop=0 / weightp=2 / keyint=240 / keyint_min=24 / scenecut=40 / intra_refresh=0 / rc_lookahead=120 / rc=2pass / mbtree=1 / bitrate=10567 / ratetol=2.0 / qcomp=0.80 / qpmin=0 / qpmax=51 / qpstep=4 / cplxblur=20.0 / qblur=0.5 / vbv_maxrate=50000 / vbv_bufsize=62500 / nal_hrd=none / ip_ratio=1.10 / aq=2:0.80
Color primaries : BT.709-5, BT.1361, IEC 61966-2-4, SMPTE RP177
Transfer characteristics : BT.709-5, BT.1361
Matrix coefficients : BT.709-5, BT.1361, IEC 61966-2-4 709, SMPTE RP177

Audio #1
ID : 2
Format : AC-3
Format/Info : Audio Coding 3
Mode extension : CM (complete main)
Codec ID : A_AC3
Duration : 1h 28mn
Bit rate mode : Constant
Bit rate : 384 Kbps
Channel(s) : 6 channels
Channel positions : Front: L C R, Side: L R, LFE
Sampling rate : 48.0 KHz
Bit depth : 16 bits
Stream size : 246 MiB (3%)
Title : МVO - West Video
Language : Russian

Audio #2
ID : 3
Format : AC-3
Format/Info : Audio Coding 3
Mode extension : CM (complete main)
Codec ID : A_AC3
Duration : 1h 28mn
Bit rate mode : Constant
Bit rate : 384 Kbps
Channel(s) : 6 channels
Channel positions : Front: L C R, Side: L R, LFE
Sampling rate : 48.0 KHz
Bit depth : 16 bits
Stream size : 246 MiB (3%)
Title : AVO - Пучков(Гоблин)
Language : Russian

Audio #3
ID : 4
Format : AC-3
Format/Info : Audio Coding 3
Mode extension : CM (complete main)
Codec ID : A_AC3
Duration : 1h 28mn
Bit rate mode : Constant
Bit rate : 384 Kbps
Channel(s) : 6 channels
Channel positions : Front: L C R, Side: L R, LFE
Sampling rate : 48.0 KHz
Bit depth : 16 bits
Stream size : 246 MiB (3%)
Title : AVO - Санаев(ранний перевод)
Language : Russian

Audio #4
ID : 5
Format : AC-3
Format/Info : Audio Coding 3
Mode extension : CM (complete main)
Codec ID : A_AC3
Duration : 1h 28mn
Bit rate mode : Constant
Bit rate : 384 Kbps
Channel(s) : 6 channels
Channel positions : Front: L C R, Side: L R, LFE
Sampling rate : 48.0 KHz
Bit depth : 16 bits
Stream size : 246 MiB (3%)
Title : MVO - ICTV
Language : Ukrainian

Audio #5
ID : 6
Format : AC-3
Format/Info : Audio Coding 3
Mode extension : CM (complete main)
Codec ID : A_AC3
Duration : 1h 28mn
Bit rate mode : Constant
Bit rate : 384 Kbps
Channel(s) : 6 channels
Channel positions : Front: L C R, Side: L R, LFE
Sampling rate : 48.0 KHz
Bit depth : 16 bits
Stream size : 246 MiB (3%)

Text #1
ID : 7
Format : UTF-8
Codec ID : S_TEXT/UTF8
Codec ID/Info : UTF-8 Plain Text
Title : Цензура
Language : Russian

Text #2
ID : 8
Format : UTF-8
Codec ID : S_TEXT/UTF8
Codec ID/Info : UTF-8 Plain Text
Title : Гоблин
Language : Russian

Text #3
ID : 9
Format : UTF-8
Codec ID : S_TEXT/UTF8
Codec ID/Info : UTF-8 Plain Text

Menu
00:00:00.000 : en:00:00:00.000
00:09:19.025 : en:00:09:19.025
00:12:44.998 : en:00:12:44.998
00:19:00.339 : en:00:19:00.339
00:26:09.735 : en:00:26:09.735
00:31:05.797 : en:00:31:05.797
00:36:35.460 : en:00:36:35.460
00:40:58.489 : en:00:40:58.489
00:48:38.415 : en:00:48:38.415
00:53:32.476 : en:00:53:32.476
00:56:08.465 : en:00:56:08.465
01:02:25.108 : en:01:02:25.108
01:09:05.341 : en:01:09:05.341
01:12:58.040 : en:01:12:58.040
01:17:27.142 : en:01:17:27.142




Релиз группы:
загрузка...
Правила, инструкции, FAQ!!!
Торрент  Добавлен [26 сен 2013, 08:54] Скачать торрент
Скачать торрент
[ Размер 20.02 КБ / Просмотров 14 ]

Статус  
 
Размер  7.75 ГБ
Приватный: Нет (DHT включён)
.torrent скачан  0
Как залить торрент? | Как скачать Torrent? | Как смотреть и слушать онлайн?  


     Отправить личное сообщение
   
Страница 1 из 1
Показать сообщения за:  Поле сортировки  
Начать новую тему Ответить на тему

   Похожие торренты   Автор   Ответы   Просмотры   Последнее сообщение 
В этой теме нет новых непрочитанных сообщений. Скачать торрент Проверен Угроза для общества / Menace II Society (1993) BDRip [1080p]

в форуме 720p | 1080p, Размер: 7.13 ГБ, Здоровье: 100%

Гость

0
26|2

32
0

12 дек 2014, 21:45

Гость Перейти к последнему сообщению

В этой теме нет новых непрочитанных сообщений. Скачать торрент Проверен (Progressive Metal) Sahara (South Korea) - The Seven Years Of Drought (1993), Self Ego (1996) - 1993-1996, MP3, 320 kbps

в форуме Heavy, Power, Progressive (Metal), Размер: 218.51 МБ, Здоровье: 0%

Anonymous

0
0|0

0
0

09 окт 2016, 11:54

Anonymous Перейти к последнему сообщению

В этой теме нет новых непрочитанных сообщений. Скачать торрент Проверен Стиратель / Eraser (1996) BDRip 1080p

в форуме 720p | 1080p, Размер: 6.21 ГБ, Здоровье: 100%

Anonymous

0
10|4

31
137

18 сен 2014, 12:57

Anonymous Перейти к последнему сообщению

В этой теме нет новых непрочитанных сообщений. Скачать торрент Проверен На игле / Trainspotting (1996) BDRip 1080p

в форуме 720p | 1080p, Размер: 8.69 ГБ, Здоровье: 100%

Anonymous

0
27|5

53
124

06 сен 2014, 22:16

Anonymous Перейти к последнему сообщению

В этой теме нет новых непрочитанных сообщений. Скачать торрент Проверен Вне/себя / Self/less (2015) WEB-DL 1080p | iTunes

в форуме 720p | 1080p, Размер: 4.34 ГБ, Здоровье: 100%

Гость

0
15689|3827

215
14455

27 авг 2015, 23:42

Гость Перейти к последнему сообщению



Сейчас этот форум просматривают: нет зарегистрированных пользователей и гости: 1


Вы не можете начинать темы
Вы не можете отвечать на сообщения
Вы не можете редактировать свои сообщения
Вы не можете удалять свои сообщения
Вы не можете добавлять вложения

Перейти:  

!ВНИМАНИЕ!
 Ресурс не предоставляет электронные версии произведений, а занимается лишь коллекционированием и каталогизацией ссылок, присылаемых и публикуемых на форуме нашими читателями. Если вы являетесь правообладателем какого-либо представленного материала и не желаете чтобы ссылка на него находилась в нашем каталоге, свяжитесь с нами и мы незамедлительно удалим её. Файлы для обмена на трекере предоставлены пользователями сайта, и администрация не несёт ответственности за их содержание. Просьба не заливать файлы, защищенные авторскими правами, а также файлы нелегального содержания!