На всех торрентах на трекере установлена скидка на скачивание в размере 100 процентов(а).
 Возможность скачивания торрента НЕ зависит от ограничений при низком ратио, низком аплоаде, требуемом ратио или требуемом аплоаде.


Начать новую тему Ответить на тему
Статистика раздачи
Размер: 7.74 ГБ | Добавлен: 24 сен 2013, 19:29 | Скачали: 0
Сидеров: 0  [0 байт/сек]    Личеров: 0  [0 байт/сек]
Пред. тема | След. тема 

Автор
Сообщение

СообщениеДобавлено: 24 сен 2013, 19:29 

Информация о фильме
    Русское название: Война невест
    Оригинальное название: Bride Wars
    Год выхода: 2009
    Жанр: Мелодрама, Комедия
    Режиссер: Гари Виник
    Выпущено: США
    Продолжительность: 01:28:57
    Перевод: Дублированный
    В ролях: Кейт Хадсон, Энн Хэтевей, Кэндис Берген, Брайн Гринберг, Стив Хауи, Кристен Джонсон, Крис Пратт, Кэйси Роуз Уилсон, Джун Рафаэл, Джон Панкоу


Сюжет фильма
    Конец дружбе Эммы и Лив кладут их свадьбы, намеченные на один и тот же день. Никто не хочет уступать товарке, и погулять сначала у нее, а потом закатить пир самой. Девушки начинают отчаянную конкуренцию за место проведения торжества, гостей и предоставляемые услуги, не желая ни в чем уступать сопернице…


Файл
    Качество: BDRip 1080p (исходник Blu-ray Remux)
    Видео: 1920x1038, 11400 Кбит/сек, 23,976 кадр/сек, AVC, x264, High@L4.1, 1.85:1, 0.239 Бит/[Пиксели*Кадры], 2pass
    Аудио 1: AC-3, 448 Кбит/сек, 6 канала(ов), 48,0 КГц - Дублированный / Русский
    Аудио 2: AC-3, 640 Кбит/сек, 6 канала(ов), 48,0 КГц - Оригинал / Английский
    Субтитры: Русские | Полные, Английские | Полные
    Чаптеры: Есть



Автор Рипа:



Format : Matroska
Format version : Version 2
File size : 7.74 GiB
Duration : 1h 28mn
Overall bit rate : 12.5 Mbps
Movie name : Война невест.(2009).BDRip.1080p.[envy]
Encoded date : UTC 2013-09-24 13:37:19
Writing application : mkvmerge v5.8.0 ('No Sleep / Pillow') built on Sep 2 2012 15:37:04
Writing library : libebml v1.2.3 + libmatroska v1.3.0

Video
ID : 1
Format : AVC
Format/Info : Advanced Video Codec
Format profile : High@L4.1
Format settings, CABAC : Yes
Format settings, ReFrames : 4 frames
Codec ID : V_MPEG4/ISO/AVC
Duration : 1h 28mn
Bit rate : 11.4 Mbps
Width : 1 920 pixels
Height : 1 038 pixels
Display aspect ratio : 1.85:1
Frame rate mode : Constant
Frame rate : 23.976 fps
Color space : YUV
Chroma subsampling : 4:2:0
Bit depth : 8 bits
Scan type : Progressive
Bits/(Pixel*Frame) : 0.239
Stream size : 6.91 GiB (89%)
Title : Война невест.(2009).BDRip.1080p.[envy]
Writing library : x264 core 138 r2358 9e941d1
Encoding settings : cabac=1 / ref=4 / deblock=1:-3:-3 / analyse=0x3:0x133 / me=umh / subme=11 / psy=1 / psy_rd=1.00:0.00 / mixed_ref=1 / me_range=48 / chroma_me=1 / trellis=2 / 8x8dct=1 / cqm=0 / deadzone=21,11 / fast_pskip=0 / chroma_qp_offset=-2 / threads=12 / lookahead_threads=1 / sliced_threads=0 / nr=0 / decimate=1 / interlaced=0 / bluray_compat=0 / constrained_intra=0 / bframes=6 / b_pyramid=2 / b_adapt=2 / b_bias=0 / direct=3 / weightb=1 / open_gop=0 / weightp=2 / keyint=240 / keyint_min=24 / scenecut=40 / intra_refresh=0 / rc=2pass / mbtree=0 / bitrate=11400 / ratetol=2.0 / qcomp=0.60 / qpmin=0 / qpmax=69 / qpstep=4 / cplxblur=20.0 / qblur=0.5 / ip_ratio=1.40 / pb_ratio=1.30 / aq=1:0.70
Language : English
Default : Yes
Forced : No

Audio #1
ID : 2
Format : AC-3
Format/Info : Audio Coding 3
Mode extension : CM (complete main)
Format settings, Endianness : Big
Codec ID : A_AC3
Duration : 1h 28mn
Bit rate mode : Constant
Bit rate : 448 Kbps
Channel(s) : 6 channels
Channel positions : Front: L C R, Side: L R, LFE
Sampling rate : 48.0 KHz
Bit depth : 16 bits
Compression mode : Lossy
Stream size : 285 MiB (4%)
Title : Дублированный
Language : Russian
Default : Yes
Forced : No

Audio #2
ID : 3
Format : AC-3
Format/Info : Audio Coding 3
Mode extension : CM (complete main)
Format settings, Endianness : Big
Codec ID : A_AC3
Duration : 1h 28mn
Bit rate mode : Constant
Bit rate : 640 Kbps
Channel(s) : 6 channels
Channel positions : Front: L C R, Side: L R, LFE
Sampling rate : 48.0 KHz
Bit depth : 16 bits
Compression mode : Lossy
Stream size : 407 MiB (5%)
Title : Оригинал
Language : English
Default : No
Forced : No

Text #1
ID : 4
Format : UTF-8
Codec ID : S_TEXT/UTF8
Codec ID/Info : UTF-8 Plain Text
Title : Полные
Language : Russian
Default : No
Forced : No

Text #2
ID : 5
Format : UTF-8
Codec ID : S_TEXT/UTF8
Codec ID/Info : UTF-8 Plain Text
Title : Full
Language : English
Default : No
Forced : No

Menu
00:00:00.000 : :Chapter 01
00:09:06.170 : :Chapter 02
00:18:00.579 : :Chapter 03
00:26:49.940 : :Chapter 04
00:35:01.849 : :Chapter 05
00:43:15.259 : :Chapter 06
00:52:38.488 : :Chapter 07
00:59:24.644 : :Chapter 08
01:07:32.423 : :Chapter 09
01:11:44.300 : :Chapter 10
01:18:31.206 : :Chapter 11
01:24:40.575 : :Chapter 12
загрузка...
Правила, инструкции, FAQ!!!
Торрент  Добавлен [24 сен 2013, 19:29] Скачать торрент
Скачать торрент
[ Размер 39.13 КБ / Просмотров 7 ]

Статус  
 
Размер  7.74 ГБ
Приватный: Нет (DHT включён)
.torrent скачан  0
Как залить торрент? | Как скачать Torrent? | Как смотреть и слушать онлайн?  


     Отправить личное сообщение
   
Страница 1 из 1
Показать сообщения за:  Поле сортировки  
Начать новую тему Ответить на тему

   Похожие торренты   Автор   Ответы   Просмотры   Последнее сообщение 
В этой теме нет новых непрочитанных сообщений. Скачать торрент Проверен [iPad] Война невест / Bride Wars (Гари Виник / Gary Winick) [2009, мелодрама, комедия, BDRip, 1024x]

в форуме Фильмы для iPod, iPhone, iPad, Размер: 2.38 ГБ, Здоровье: 100%

Гость

0
14|5

23
0

11 май 2015, 01:31

Гость Перейти к последнему сообщению

В этой теме нет новых непрочитанных сообщений. Скачать торрент Война невест / Bride Wars (Гари Виник / Gary Winick) [2009 г., комедия, мелодрама, НDRip] Dub

в форуме Комедии, Размер: 744.61 МБ, Здоровье: 0%

Anonymous

0
0|0

32
0

19 апр 2014, 18:50

Anonymous Перейти к последнему сообщению

В этой теме нет новых непрочитанных сообщений. Скачать торрент Проверен Одна война (Вера Глаголева) [2009, Россия, драма, BDRip 1080p]

в форуме Наше кино (HD Video), Размер: 8.11 ГБ, Здоровье: 100%

Гость

0
5|2

40
0

12 апр 2015, 10:59

Гость Перейти к последнему сообщению

В этой теме нет новых непрочитанных сообщений. Скачать торрент Звездные войны: Сага / Star Wars: The Complete Saga (1977-2005) BDRip 1080p

в форуме Антологии, Размер: 69.32 ГБ, Здоровье: 100%

Anonymous

0
74|46

161
69

28 мар 2014, 17:16

Anonymous Перейти к последнему сообщению

В этой теме нет новых непрочитанных сообщений. Скачать торрент Проверен Звёздные войны: Пробуждение силы / Star Wars: Episode VII - The Force Awakens (2015) BDRip 1080p | iTunes

в форуме 720p | 1080p, Размер: 17.56 ГБ, Здоровье: 100%

Гость

0
1220|550

282
3139

01 апр 2016, 20:17

Гость Перейти к последнему сообщению



Сейчас этот форум просматривают: нет зарегистрированных пользователей и гости: 4


Вы не можете начинать темы
Вы не можете отвечать на сообщения
Вы не можете редактировать свои сообщения
Вы не можете удалять свои сообщения
Вы не можете добавлять вложения

Перейти:  

!ВНИМАНИЕ!
 Ресурс не предоставляет электронные версии произведений, а занимается лишь коллекционированием и каталогизацией ссылок, присылаемых и публикуемых на форуме нашими читателями. Если вы являетесь правообладателем какого-либо представленного материала и не желаете чтобы ссылка на него находилась в нашем каталоге, свяжитесь с нами и мы незамедлительно удалим её. Файлы для обмена на трекере предоставлены пользователями сайта, и администрация не несёт ответственности за их содержание. Просьба не заливать файлы, защищенные авторскими правами, а также файлы нелегального содержания!