На всех торрентах на трекере установлена скидка на скачивание в размере 100 процентов(а).
 Возможность скачивания торрента НЕ зависит от ограничений при низком ратио, низком аплоаде, требуемом ратио или требуемом аплоаде.


Начать новую тему Ответить на тему
Статистика раздачи
Размер: 7.94 ГБ | Добавлен: 23 сен 2013, 20:07 | Скачали: 0
Сидеров: 0  [0 байт/сек]    Личеров: 0  [0 байт/сек]
Пред. тема | След. тема 

Автор
Сообщение

СообщениеДобавлено: 23 сен 2013, 20:07 

Информация о фильме
    Русское название: Тепло наших тел
    Оригинальное название: Warm Bodies
    Год выхода: 2013
    Жанр: Ужасы, Мелодрама, Комедия
    Режиссер: Джонатан Левин
    Выпущено: США
    Продолжительность: 01:35:01
    Перевод: Дублированный
    В ролях: Николас Холт, Тереза Палмер, Анали Типтон, Роб Кордри, Дэйв Франко, Джон Малкович, Кори Хардрикт, Дэниэл Риндресс-Кей, Винсент Леклерк, Клиффорд ЛеДюк-Вайанкур, Билли Кальмо, Адам Дрисколл, Крис Каверен


Сюжет фильма
    Мир поражен чумой и стоит на грани вымирания. Покойники ходят по земле и норовят употребить в пищу живых, которые, оставшись в катастрофическом меньшинстве, с трудом держат оборону. Перемены начинаются, когда один зомби, чье имя при жизни начиналось на «Р», спасает девушку вместо того, чтобы ее съесть. Дружба, завязавшаяся между представителями враждующих сторон, грозит обоим самыми нехорошими последствиями. Но Р и Джули, сами того не подозревая, держат в руках простой и единственный ключ к спасению гибнущего мира.


Файл
    Качество: BDRip 1080p (исходник Blu-ray Disc)
    Видео: 1920x800, 10555 Кбит/сек, 23,976 кадр/сек, AVC, x264, High@L4.1, 2.40:1, 0.287 Бит/[Пиксели*Кадры], 2pass
    Аудио 1: AC-3, 448 Кбит/сек, 6 канала(ов), 48,0 КГц - Дублированный / Русский
    Аудио 2: AC-3, 640 Кбит/сек, 6 канала(ов), 48,0 КГц - Оригинал / Английский
    Субтитры: Русские | Полные, Английские | Полные
    Чаптеры: Есть



Автор Рипа:



Format : Matroska
Format version : Version 4 / Version 2
File size : 7.94 GiB
Duration : 1h 37mn
Overall bit rate : 11.6 Mbps
Movie name : Тепло наших тел.(2013).BDRip.1080p.[envy]
Encoded date : UTC 2013-09-23 12:11:07
Writing application : mkvmerge v6.4.1 ('Omega Point') built on Sep 16 2013 22:05:10
Writing library : libebml v1.3.0 + libmatroska v1.4.1

Video
ID : 1
Format : AVC
Format/Info : Advanced Video Codec
Format profile : High@L4.1
Format settings, CABAC : Yes
Format settings, ReFrames : 5 frames
Codec ID : V_MPEG4/ISO/AVC
Duration : 1h 37mn
Bit rate : 10.6 Mbps
Width : 1 920 pixels
Height : 800 pixels
Display aspect ratio : 2.40:1
Frame rate mode : Constant
Frame rate : 23.976 fps
Color space : YUV
Chroma subsampling : 4:2:0
Bit depth : 8 bits
Scan type : Progressive
Bits/(Pixel*Frame) : 0.287
Stream size : 7.04 GiB (89%)
Title : Тепло наших тел.(2013).BDRip.1080p.[envy]
Writing library : x264 core 138 r2358 9e941d1
Encoding settings : cabac=1 / ref=5 / deblock=1:-3:-3 / analyse=0x3:0x133 / me=umh / subme=11 / psy=1 / psy_rd=1.00:0.00 / mixed_ref=1 / me_range=32 / chroma_me=1 / trellis=2 / 8x8dct=1 / cqm=0 / deadzone=21,11 / fast_pskip=0 / chroma_qp_offset=-2 / threads=12 / lookahead_threads=1 / sliced_threads=0 / nr=0 / decimate=1 / interlaced=0 / bluray_compat=0 / constrained_intra=0 / bframes=6 / b_pyramid=2 / b_adapt=2 / b_bias=0 / direct=3 / weightb=1 / open_gop=0 / weightp=2 / keyint=240 / keyint_min=23 / scenecut=40 / intra_refresh=0 / rc=2pass / mbtree=0 / bitrate=10555 / ratetol=2.0 / qcomp=0.60 / qpmin=0 / qpmax=69 / qpstep=4 / cplxblur=20.0 / qblur=0.5 / ip_ratio=1.40 / pb_ratio=1.30 / aq=1:0.80
Language : English
Default : Yes
Forced : No

Audio #1
ID : 2
Format : AC-3
Format/Info : Audio Coding 3
Mode extension : CM (complete main)
Format settings, Endianness : Big
Codec ID : A_AC3
Duration : 1h 37mn
Bit rate mode : Constant
Bit rate : 448 Kbps
Channel(s) : 6 channels
Channel positions : Front: L C R, Side: L R, LFE
Sampling rate : 48.0 KHz
Bit depth : 16 bits
Compression mode : Lossy
Stream size : 313 MiB (4%)
Title : Дублированный
Language : Russian
Default : Yes
Forced : No

Audio #2
ID : 3
Format : AC-3
Format/Info : Audio Coding 3
Mode extension : CM (complete main)
Format settings, Endianness : Big
Codec ID : A_AC3
Duration : 1h 37mn
Bit rate mode : Constant
Bit rate : 640 Kbps
Channel(s) : 6 channels
Channel positions : Front: L C R, Side: L R, LFE
Sampling rate : 48.0 KHz
Bit depth : 16 bits
Compression mode : Lossy
Stream size : 448 MiB (6%)
Title : Оригинал
Language : English
Default : No
Forced : No

Text #1
ID : 4
Format : UTF-8
Codec ID : S_TEXT/UTF8
Codec ID/Info : UTF-8 Plain Text
Title : Полные
Language : Russian
Default : No
Forced : No

Text #2
ID : 5
Format : UTF-8
Codec ID : S_TEXT/UTF8
Codec ID/Info : UTF-8 Plain Text
Title : Full
Language : English
Default : No
Forced : No

Menu
00:00:00.000 : :Chapter 01
00:06:39.858 : :Chapter 02
00:12:24.202 : :Chapter 03
00:19:24.580 : :Chapter 04
00:24:22.920 : :Chapter 05
00:31:17.626 : :Chapter 06
00:40:52.408 : :Chapter 07
00:45:32.563 : :Chapter 08
00:49:56.285 : :Chapter 09
00:55:44.091 : :Chapter 10
01:02:25.492 : :Chapter 12
01:08:49.876 : :Chapter 13
01:14:08.861 : :Chapter 14
01:17:27.393 : :Chapter 15
01:24:00.702 : :Chapter 16
01:30:30.759 : :Chapter 17
загрузка...
Правила, инструкции, FAQ!!!
Торрент  Добавлен [23 сен 2013, 20:07] Скачать торрент
Скачать торрент
[ Размер 40.15 КБ / Просмотров 8 ]

Статус  
 
Размер  7.94 ГБ
Приватный: Нет (DHT включён)
.torrent скачан  0
Как залить торрент? | Как скачать Torrent? | Как смотреть и слушать онлайн?  


     Отправить личное сообщение
   
Страница 1 из 1
Показать сообщения за:  Поле сортировки  
Начать новую тему Ответить на тему

   Похожие торренты   Автор   Ответы   Просмотры   Последнее сообщение 
В этой теме нет новых непрочитанных сообщений. Скачать торрент Проверен (Electronic / Kraut Rock / Space) Warm Digits - Keep Warm... with the Warm Digits - 2012, FLAC (image+.cue), lossless

в форуме Progressive & Art-Rock, Размер: 363.48 МБ, Здоровье: 0%

Anonymous

0
0|0

0
0

29 авг 2016, 23:09

Anonymous Перейти к последнему сообщению

В этой теме нет новых непрочитанных сообщений. Скачать торрент Проверен Несвятые / Ain't Them Bodies Saints (2013) HDRip | Лицензия

в форуме Драмы, Мелодрамы, Размер: 1.46 ГБ, Здоровье: 100%

Anonymous

0
23|0

21
142

19 май 2014, 08:09

Anonymous Перейти к последнему сообщению

В этой теме нет новых непрочитанных сообщений. Скачать торрент Проверен Feuertanz Festival 2013 [2013, Folk Rock/Metal, BDRip 1080p]

в форуме Концерты (HD-Video), Размер: 9.84 ГБ, Здоровье: 100%

Anonymous

0
2|1

0
0

23 окт 2016, 13:38

Anonymous Перейти к последнему сообщению

В этой теме нет новых непрочитанных сообщений. Скачать торрент Проверен Mylene Farmer - Timeless 2013 Le Film (2013) BDRip 1080p

в форуме Концерты (HD-Video), Размер: 11.68 ГБ, Здоровье: 100%

Anonymous

0
25|2

135
46

19 май 2014, 18:48

Anonymous Перейти к последнему сообщению

В этой теме нет новых непрочитанных сообщений. Скачать торрент Проверен Megadeth - Countdown To Extinction - Live 2013 [2013, Thrash Metal, BDRip 1080p]

в форуме Концерты (HD-Video), Размер: 9.03 ГБ, Здоровье: 100%

Anonymous

0
9|3

3
1

23 окт 2016, 18:43

Anonymous Перейти к последнему сообщению



Сейчас этот форум просматривают: нет зарегистрированных пользователей и гости: 1


Вы не можете начинать темы
Вы не можете отвечать на сообщения
Вы не можете редактировать свои сообщения
Вы не можете удалять свои сообщения
Вы не можете добавлять вложения

Перейти:  

!ВНИМАНИЕ!
 Ресурс не предоставляет электронные версии произведений, а занимается лишь коллекционированием и каталогизацией ссылок, присылаемых и публикуемых на форуме нашими читателями. Если вы являетесь правообладателем какого-либо представленного материала и не желаете чтобы ссылка на него находилась в нашем каталоге, свяжитесь с нами и мы незамедлительно удалим её. Файлы для обмена на трекере предоставлены пользователями сайта, и администрация не несёт ответственности за их содержание. Просьба не заливать файлы, защищенные авторскими правами, а также файлы нелегального содержания!