На всех торрентах на трекере установлена скидка на скачивание в размере 100 процентов(а).
 Возможность скачивания торрента НЕ зависит от ограничений при низком ратио, низком аплоаде, требуемом ратио или требуемом аплоаде.


Начать новую тему Ответить на тему
Статистика раздачи
Размер: 4.37 ГБ | Добавлен: 23 сен 2013, 12:32 | Скачали: 0
Сидеров: 0  [0 байт/сек]    Личеров: 0  [0 байт/сек]
Пред. тема | След. тема 

Автор
Сообщение

СообщениеДобавлено: 23 сен 2013, 12:32 

Название: Кэндимен
Оригинальное название: Candyman
Год выпуска: 1992
Жанр: Ужасы, мистика, триллер
Режиссер: Бернард Роуз

В ролях: Вирджиния Мэдсен, Тони Тодд, Ксандер Беркли, Кэйси Лемм

Описание: У жителей отдаленных кварталов Чикаго существует легенда о загадочном маньяке по прозвищу Кэндимэн, обитателе параллельного мира. Ему не нужен нож, чтобы наносить раны: протез руки в виде крюка - идеальное орудие преступления. Пока Кэндимэн находится за гранью реальности. Но если встать перед зеркалом и пять раз подряд произнести его имя, он перейдет эту зыбкую черту. И тогда никому не удастся спастись. За изучение этой легенды берется группа молодых ученых, которые не верят в таинственного Кэндимэна. Но в любой момент вместо своего отражения в зеркале они могут увидеть убийцу...


Страна: США
Студия: PolyGram Filmed Entertainment
Продолжительность: 01:39:19
Перевод: Профессиональный многоголосый, авторский одноголосый


Качество: BDRip 720p
Видео: MPEG-4 AVC, 5342 Кбит/с, 1280x694, 23.976 кадр/с
Аудио #1: Русский (AC3, 2 ch, 192 Кбит/с) / Профессиональный многоголосый (R5)
Аудио #2: Русский (AC3, 2 ch, 192 Кбит/с) / Авторский одноголосый (А. Михалев)
Аудио #3: Русский (AC3, 2 ch, 192 Кбит/с) / Авторский одноголосый (С. Визгунов)
Аудио #4: Русский (AC3, 2 ch, 192 Кбит/с) / Авторский одноголосый (В. Сонькин)
Аудио #5: Английский (AC3, 2 ch, 192 Кбит/с)
Субтитры: Русские, английские

Семпл



Общее
Уникальный идентификатор : 241373084927398929052203180738399185133 (0xB596C3E4595BD1508F21F9D4626C28ED)
Полное имя : D:Mои раздачиCandyman.1992.BDRip.(720p)-MediaClub.mkv
Формат : Matroska
Версия формата : Version 4 / Version 2
Размер файла : 4,37 Гбайт
Продолжительность : 1 ч. 39 м.
Общий поток : 6303 Кбит/сек
Название фильма : -=MediaClub-kaspr=-
Дата кодирования : UTC 2013-09-22 18:55:55
Программа кодирования : mkvmerge v6.3.0 ('You can't stop me!') built on Jul 19 2013 16:27:38
Библиотека кодирования : libebml v1.3.0 + libmatroska v1.4.1
Attachment : Yes / Yes

Видео
Идентификатор : 1
Формат : AVC
Формат/Информация : Advanced Video Codec
Профиль формата : High@L4.1
Параметр CABAC формата : Да
Параметр ReFrames формата : 8 кадров
Идентификатор кодека : V_MPEG4/ISO/AVC
Продолжительность : 1 ч. 39 м.
Битрейт : 5342 Кбит/сек
Ширина : 1280 пикселей
Высота : 694 пикселя
Соотношение сторон : 1,85:1
Режим частоты кадров : Постоянный
Частота кадров : 23,976 кадра/сек
Цветовое пространство : YUV
Субдискретизация насыщенности : 4:2:0
Битовая глубина : 8 бит
Тип развёртки : Прогрессивная
Бит/(Пиксели*Кадры) : 0.251
Размер потока : 3,62 Гбайт (83%)
Заголовок : -=MediaClub-kaspr=-
Библиотека кодирования : x264 core 130 r2273 b3065e6
Настройки программы : cabac=1 / ref=8 / deblock=1:-3:-3 / analyse=0x3:0x133 / me=umh / subme=11 / psy=1 / psy_rd=1.00:0.20 / mixed_ref=1 / me_range=48 / chroma_me=1 / trellis=2 / 8x8dct=1 / cqm=0 / deadzone=21,11 / fast_pskip=0 / chroma_qp_offset=-3 / threads=12 / lookahead_threads=2 / sliced_threads=0 / nr=0 / decimate=0 / interlaced=0 / bluray_compat=0 / constrained_intra=0 / bframes=9 / b_pyramid=2 / b_adapt=2 / b_bias=0 / direct=3 / weightb=1 / open_gop=0 / weightp=2 / keyint=240 / keyint_min=23 / scenecut=40 / intra_refresh=0 / rc=2pass / mbtree=0 / bitrate=5342 / ratetol=1.0 / qcomp=0.60 / qpmin=0 / qpmax=69 / qpstep=4 / cplxblur=20.0 / qblur=0.5 / ip_ratio=1.40 / pb_ratio=1.30 / aq=1:1.00
Default : Да
Forced : Да

Аудио #1
Идентификатор : 2
Формат : AC-3
Формат/Информация : Audio Coding 3
Расширение режима : CM (complete main)
Параметр Endianness формата : Big
Идентификатор кодека : A_AC3
Продолжительность : 1 ч. 39 м.
Вид битрейта : Постоянный
Битрейт : 192 Кбит/сек
Каналы : 2 канала
Расположение каналов : Front: L R
Частота : 48,0 КГц
Битовая глубина : 16 бит
Метод сжатия : С потерями
Размер потока : 136 Мбайт (3%)
Заголовок : AC3 2.0 @ 192 kbps - Многоголосный, R5
Язык : Russian
Default : Да
Forced : Нет

Аудио #2
Идентификатор : 3
Формат : AC-3
Формат/Информация : Audio Coding 3
Расширение режима : CM (complete main)
Параметр Endianness формата : Big
Идентификатор кодека : A_AC3
Продолжительность : 1 ч. 39 м.
Вид битрейта : Постоянный
Битрейт : 192 Кбит/сек
Каналы : 2 канала
Расположение каналов : Front: L R
Частота : 48,0 КГц
Битовая глубина : 16 бит
Метод сжатия : С потерями
Размер потока : 136 Мбайт (3%)
Заголовок : AC3 2.0 @ 192 kbps - Одноголосный, А.Михалёв
Язык : Russian
Default : Нет
Forced : Нет

Аудио #3
Идентификатор : 4
Формат : AC-3
Формат/Информация : Audio Coding 3
Расширение режима : CM (complete main)
Параметр Endianness формата : Big
Идентификатор кодека : A_AC3
Продолжительность : 1 ч. 39 м.
Вид битрейта : Постоянный
Битрейт : 192 Кбит/сек
Каналы : 2 канала
Расположение каналов : Front: L R
Частота : 48,0 КГц
Битовая глубина : 16 бит
Метод сжатия : С потерями
Размер потока : 136 Мбайт (3%)
Заголовок : AC3 2.0 @ 192 kbps - Одноголосный, С. Визгунов
Язык : Russian
Default : Нет
Forced : Нет

Аудио #4
Идентификатор : 5
Формат : AC-3
Формат/Информация : Audio Coding 3
Расширение режима : CM (complete main)
Параметр Endianness формата : Big
Идентификатор кодека : A_AC3
Продолжительность : 1 ч. 39 м.
Вид битрейта : Постоянный
Битрейт : 192 Кбит/сек
Каналы : 2 канала
Расположение каналов : Front: L R
Частота : 48,0 КГц
Битовая глубина : 16 бит
Метод сжатия : С потерями
Размер потока : 136 Мбайт (3%)
Заголовок : AC3 2.0 @ 192 kbps - Одноголосный, В. Сонькин
Язык : Russian
Default : Нет
Forced : Нет

Аудио #5
Идентификатор : 6
Формат : AC-3
Формат/Информация : Audio Coding 3
Расширение режима : CM (complete main)
Параметр Endianness формата : Big
Идентификатор кодека : A_AC3
Продолжительность : 1 ч. 39 м.
Вид битрейта : Постоянный
Битрейт : 192 Кбит/сек
Каналы : 2 канала
Расположение каналов : Front: L R
Частота : 48,0 КГц
Битовая глубина : 16 бит
Метод сжатия : С потерями
Размер потока : 136 Мбайт (3%)
Заголовок : AC3 2.0 @ 192 kbps
Язык : English
Default : Нет
Forced : Нет

Текст #1
Идентификатор : 7
Формат : UTF-8
Идентификатор кодека : S_TEXT/UTF8
Идентификатор кодека/Информация : UTF-8 Plain Text
Язык : Russian
Default : Нет
Forced : Нет

Текст #2
Идентификатор : 8
Формат : UTF-8
Идентификатор кодека : S_TEXT/UTF8
Идентификатор кодека/Информация : UTF-8 Plain Text
Язык : English
Default : Нет
Forced : Нет

Меню
00:00:00.000 : en:Chapter 1
00:09:19.224 : en:Chapter 2
00:16:33.993 : en:Chapter 3
00:24:45.733 : en:Chapter 4
00:28:31.876 : en:Chapter 5
00:32:23.567 : en:Chapter 6
00:37:49.601 : en:Chapter 7
00:42:28.920 : en:Chapter 8
00:47:38.606 : en:Chapter 9
00:51:56.947 : en:Chapter 10
01:00:58.070 : en:Chapter 11
01:05:51.072 : en:Chapter 12
01:13:29.988 : en:Chapter 13
01:17:49.832 : en:Chapter 14
01:23:49.274 : en:Chapter 15
01:27:16.981 : en:Chapter 16
01:30:30.591 : en:Chapter 17
01:35:15.960 : en:Chapter 18

Релиз:
загрузка...
Правила, инструкции, FAQ!!!
Торрент  Добавлен [23 сен 2013, 12:32] Скачать торрент
Скачать торрент
[ Размер 11.51 КБ / Просмотров 15 ]

Статус  
 
Размер  4.37 ГБ
Приватный: Нет (DHT включён)
.torrent скачан  0
Как залить торрент? | Как скачать Torrent? | Как смотреть и слушать онлайн?  


     Отправить личное сообщение
   
Страница 1 из 1
Показать сообщения за:  Поле сортировки  
Начать новую тему Ответить на тему

   Похожие торренты   Автор   Ответы   Просмотры   Последнее сообщение 
В этой теме нет новых непрочитанных сообщений. Скачать торрент Проверен Немезида / Nemesis (1992) BDRip 720p

в форуме 720p | 1080p, Размер: 4.43 ГБ, Здоровье: 100%

Anonymous

0
6|0

26
309

09 авг 2014, 16:07

Anonymous Перейти к последнему сообщению

В этой теме нет новых непрочитанных сообщений. Скачать торрент Проверен Непрощенный / Unforgiven (1992) BDRip 720p | Лицензия

в форуме 720p | 1080p, Размер: 5.12 ГБ, Здоровье: 100%

Гость

0
14|0

163
2

27 апр 2016, 20:23

Гость Перейти к последнему сообщению

В этой теме нет новых непрочитанных сообщений. Скачать торрент Любовник / L’amant / The Lover (1992) BDRip 720p

в форуме 720p | 1080p, Размер: 5.59 ГБ, Здоровье: 100%

Anonymous

0
16|3

48
67

26 мар 2014, 11:34

Anonymous Перейти к последнему сообщению

В этой теме нет новых непрочитанных сообщений. Скачать торрент Смерть ей к лицу / Death Becomes Her (1992) BDRip 720p | P, A

в форуме 720p | 1080p, Размер: 7 ГБ, Здоровье: 0%

Anonymous

0
0|0

30
0

24 янв 2014, 19:20

Anonymous Перейти к последнему сообщению

В этой теме нет новых непрочитанных сообщений. Скачать торрент Проверен Считанные секунды / Split second (1992) BDRip 720p

в форуме 720p | 1080p, Размер: 4.2 ГБ, Здоровье: 100%

Anonymous

0
270|132

69
496

31 май 2015, 20:09

Anonymous Перейти к последнему сообщению



Сейчас этот форум просматривают: нет зарегистрированных пользователей и гости: 2


Вы не можете начинать темы
Вы не можете отвечать на сообщения
Вы не можете редактировать свои сообщения
Вы не можете удалять свои сообщения
Вы не можете добавлять вложения

Перейти:  

!ВНИМАНИЕ!
 Ресурс не предоставляет электронные версии произведений, а занимается лишь коллекционированием и каталогизацией ссылок, присылаемых и публикуемых на форуме нашими читателями. Если вы являетесь правообладателем какого-либо представленного материала и не желаете чтобы ссылка на него находилась в нашем каталоге, свяжитесь с нами и мы незамедлительно удалим её. Файлы для обмена на трекере предоставлены пользователями сайта, и администрация не несёт ответственности за их содержание. Просьба не заливать файлы, защищенные авторскими правами, а также файлы нелегального содержания!