На всех торрентах на трекере установлена скидка на скачивание в размере 100 процентов(а).
 Возможность скачивания торрента НЕ зависит от ограничений при низком ратио, низком аплоаде, требуемом ратио или требуемом аплоаде.


Начать новую тему Ответить на тему
Статистика раздачи
Размер: 2.19 ГБ | Добавлен: 23 сен 2013, 12:10 | Скачали: 0
Сидеров: 0  [0 байт/сек]    Личеров: 0  [0 байт/сек]
Пред. тема | След. тема 

Автор
Сообщение

СообщениеДобавлено: 23 сен 2013, 12:10 

Год выпуска: 2010
Страна: Германия / Fullfeedback Productions, Water Bear Productions
Жанр: Триллер
Продолжительность: 01:20:28
Перевод: Профессиональный (двухголосый, закадровый) лицензия
Навигация по главам: Есть


Режиссер: Стивен Мануэль / Stephen Manuel

В ролях: Эксел Ведекинд, Рангано Нуони

О фильме: Молодой человек просыпается в комнате без окон, но с огромной железной дверью и железным шкафом, закрытым на замок. На все его крики о помощи и стуки в дверь никто не отзывается. Что ему делать — неизвестно. Понятно только одно: отсчет часов до его смерти уже запущен, ведь без еды и без воды долго ему не протянуть. На второй день он обнаруживает ключ от шкафа, спрятанный в плафоне лампы освещения.
В шкафу обнаруживается зубило молоток и автоген. Запертый в комнате он начинает долбить дыру в бетонной стене. За стеной обнаруживается такая же точно комната с такой же огромной железной дверью. Разница только одна — в комнате стоит гроб, а в нем лежит живая африканская девушка, ни слова не понимающая по-английски. Вдвоем они продолжают игру на выживание






Качество: BDRip 720p [BDRemux]
Формат: MKV
Видео: H.264, 1280x676 (1.89:1), 23,976 fps, 2994 Кbps, 0.144 bit/pixel
Аудио#1: 48 kHz, AC3 Dolby Digital, 3/2 (L,C,R,l,r) + LFE ch, 448.00 kbps | RUS
Аудио#2: 48 kHz, AC3 Dolby Digital, 3/2 (L,C,R,l,r) + LFE ch, 448.00 kbps | ENG


Автор рипа:


Общее
Уникальный идентификатор : 232981166448486930110805426886103128409 (0xAF468A5DD2F2516E892AFCEE22F1D959)
Полное имя : Stal'nyje.Dveri.2010.P.BDRip.x264.potroks.mkv
Формат : Matroska
Версия формата : Version 2
Размер файла : 2,19 Гбайт
Продолжительность : 1 ч. 20 м.
Общий поток : 3888 Кбит/сек
Название фильма : -=POTROKS=-
Дата кодирования : UTC 2013-07-18 03:54:56
Программа кодирования : mkvmerge v5.9.0 ('On The Loose') built on Dec 15 2012 16:39:58
Библиотека кодирования : libebml v1.3.0 + libmatroska v1.4.0

Видео
Идентификатор : 1
Формат : AVC
Формат/Информация : Advanced Video Codec
Профиль формата : High@L4.1
Параметр CABAC формата : Да
Параметр ReFrames формата : 8 кадров
Идентификатор кодека : V_MPEG4/ISO/AVC
Продолжительность : 1 ч. 20 м.
Битрейт : 2994 Кбит/сек
Ширина : 1280 пикселей
Высота : 676 пикселей
Соотношение сторон : 1,893
Режим частоты кадров : Постоянный
Частота кадров : 23,976 кадра/сек
Цветовое пространство : YUV
Субдискретизация насыщенности : 4:2:0
Битовая глубина : 8 бит
Тип развёртки : Прогрессивная
Бит/(Пиксели*Кадры) : 0.144
Размер потока : 1,64 Гбайт (75%)
Заголовок : Iron Doors
Библиотека кодирования : x264 core 130 r2273 b3065e6
Настройки программы : cabac=1 / ref=8 / deblock=1:-3:-2 / analyse=0x3:0x133 / me=umh / subme=11 / psy=1 / psy_rd=1.07:0.00 / mixed_ref=1 / me_range=32 / chroma_me=1 / trellis=2 / 8x8dct=1 / cqm=0 / deadzone=21,11 / fast_pskip=0 / chroma_qp_offset=-2 / threads=9 / lookahead_threads=1 / sliced_threads=0 / nr=0 / decimate=1 / interlaced=0 / bluray_compat=0 / constrained_intra=0 / bframes=9 / b_pyramid=2 / b_adapt=2 / b_bias=0 / direct=3 / weightb=1 / open_gop=0 / weightp=2 / keyint=240 / keyint_min=23 / scenecut=40 / intra_refresh=0 / rc_lookahead=150 / rc=2pass / mbtree=1 / bitrate=2994 / ratetol=1.0 / qcomp=0.70 / qpmin=0 / qpmax=69 / qpstep=4 / cplxblur=20.0 / qblur=0.5 / vbv_maxrate=50000 / vbv_bufsize=62500 / nal_hrd=none / ip_ratio=1.35 / aq=1:0.70
Язык : German
Default : Да
Forced : Нет

Аудио #1
Идентификатор : 2
Формат : AC-3
Формат/Информация : Audio Coding 3
Расширение режима : CM (complete main)
Параметр Endianness формата : Big
Идентификатор кодека : A_AC3
Продолжительность : 1 ч. 20 м.
Вид битрейта : Постоянный
Битрейт : 448 Кбит/сек
Каналы : 6 каналов
Расположение каналов : Front: L C R, Side: L R, LFE
Частота : 48,0 КГц
Битовая глубина : 16 бит
Метод сжатия : С потерями
Размер потока : 258 Мбайт (12%)
Заголовок : DVO | DD 5.1 @ 448 kbps - R5
Язык : Russian
Default : Да
Forced : Да

Аудио #2
Идентификатор : 3
Формат : AC-3
Формат/Информация : Audio Coding 3
Расширение режима : CM (complete main)
Параметр Endianness формата : Big
Идентификатор кодека : A_AC3
Продолжительность : 1 ч. 20 м.
Вид битрейта : Постоянный
Битрейт : 448 Кбит/сек
Каналы : 6 каналов
Расположение каналов : Front: L C R, Side: L R, LFE
Частота : 48,0 КГц
Битовая глубина : 16 бит
Метод сжатия : С потерями
Размер потока : 258 Мбайт (12%)
Заголовок : DD 5.1 @ 448 kbps
Язык : English
Default : Нет
Forced : Нет

Меню
00:00:00.000 : :01
00:08:52.907 : :02
00:12:29.999 : :03
00:22:16.126 : :04
00:28:34.004 : :05
00:34:26.940 : :06
00:42:09.068 : :07
00:46:34.250 : :08
00:55:42.130 : :09
01:05:56.536 : :10
01:12:35.226 : :11
01:17:26.934 : :12
x264 [info]: frame I:880 Avg QP:14.30 size: 86663
x264 [info]: frame P:25687 Avg QP:17.31 size: 30144
x264 [info]: frame B:89192 Avg QP:19.24 size: 10694
x264 [info]: consecutive B-frames: 3.2% 3.5% 8.3% 12.6% 13.4% 48.6% 4.9% 2.0% 1.8% 1.2%
x264 [info]: mb I I16..4: 16.2% 69.3% 14.5%
x264 [info]: mb P I16..4: 1.7% 7.0% 1.0% P16..4: 31.8% 32.7% 9.7% 1.3% 0.1% skip:14.7%
x264 [info]: mb B I16..4: 0.2% 0.8% 0.1% B16..8: 33.7% 17.8% 2.2% direct: 5.4% skip:39.7% L0:46.0% L1:45.3% BI: 8.7%
x264 [info]: 8x8 transform intra:70.9% inter:66.7%
x264 [info]: direct mvs spatial:98.2% temporal:1.8%
x264 [info]: coded y,uvDC,uvAC intra: 70.1% 61.8% 30.8% inter: 23.7% 18.2% 0.8%
x264 [info]: i16 v,h,dc,p: 58% 11% 6% 26%
x264 [info]: i8 v,h,dc,ddl,ddr,vr,hd,vl,hu: 10% 5% 8% 10% 15% 14% 13% 12% 12%
x264 [info]: i4 v,h,dc,ddl,ddr,vr,hd,vl,hu: 25% 6% 10% 7% 12% 11% 10% 9% 10%
x264 [info]: i8c dc,h,v,p: 31% 35% 19% 14%
x264 [info]: Weighted P-Frames: Y:10.7% UV:4.8%
x264 [info]: ref P L0: 45.0% 9.3% 17.8% 8.1% 6.2% 5.0% 4.5% 3.2% 0.9% 0.1%
x264 [info]: ref B L0: 71.2% 12.8% 6.9% 3.8% 2.9% 1.7% 0.7%
x264 [info]: ref B L1: 91.9% 8.1%
x264 [info]: kb/s:2989.86

x264 [total]: encoded 115759 frames, 4.70 fps, 2989.86 kb/s
TIME
------------------------------
Общее время кодирования: 8 hour 52 min 11 sec
Файл получился на: 1721.68 mb


загрузка...
Правила, инструкции, FAQ!!!
Торрент  Добавлен [23 сен 2013, 12:10] Скачать торрент
Скачать торрент
[ Размер 11.45 КБ / Просмотров 8 ]

Статус  
 
Размер  2.19 ГБ
Приватный: Нет (DHT включён)
.torrent скачан  0
Как залить торрент? | Как скачать Torrent? | Как смотреть и слушать онлайн?  


     Отправить личное сообщение
   
Страница 1 из 1
Показать сообщения за:  Поле сортировки  
Начать новую тему Ответить на тему

   Похожие торренты   Автор   Ответы   Просмотры   Последнее сообщение 
В этой теме нет новых непрочитанных сообщений. Скачать торрент Проверен Китайские стальные двери [2007 г., Учебное видео, DVDRip]

в форуме Строительство, ремонт и дизайн, Размер: 406.3 МБ, Здоровье: 100%

Гость

0
32|6

42
3

24 янв 2016, 09:28

Гость Перейти к последнему сообщению

В этой теме нет новых непрочитанных сообщений. Скачать торрент Проверен Mastersoft - Mastersoft - Для профи. Двери (Doors for professionals) [2007]

в форуме Кулинария. Цветоводство. Домоводство, Размер: 491.98 МБ, Здоровье: 20%

Anonymous

0
2|10

67
0

02 май 2015, 16:42

Anonymous Перейти к последнему сообщению

В этой теме нет новых непрочитанных сообщений. Скачать торрент Проверен Азимов Айзек - Стальные пещеры [Макушев Михаил, 2010 г., 128, MP3]

в форуме Зарубежная фантастика, фэнтези, мистика, ужасы, Размер: 443.68 МБ, Здоровье: 0%

Anonymous

0
0|0

2
0

11 сен 2016, 12:30

Anonymous Перейти к последнему сообщению

В этой теме нет новых непрочитанных сообщений. Скачать торрент Проверен (Heavy/Power Metal) [CD] Astral Doors - Testament of Rock - The Best of Astral Doors (digipack) - 2010, FLAC (image+.cue), lossless

в форуме Heavy, Power, Progressive (Metal), Размер: 558.6 МБ, Здоровье: 0%

Anonymous

0
0|0

0
0

12 окт 2016, 00:25

Anonymous Перейти к последнему сообщению

В этой теме нет новых непрочитанных сообщений. Скачать торрент Проверен Milavida - Видеоурок по установке двери [2010, Обучающее видео, SATRip, RUS]

в форуме Строительство, ремонт и дизайн, Размер: 53.79 МБ, Здоровье: 100%

Anonymous

0
618|8

39
7

24 янв 2016, 09:40

Anonymous Перейти к последнему сообщению



Сейчас этот форум просматривают: нет зарегистрированных пользователей и гости: 1


Вы не можете начинать темы
Вы не можете отвечать на сообщения
Вы не можете редактировать свои сообщения
Вы не можете удалять свои сообщения
Вы не можете добавлять вложения

Перейти:  

!ВНИМАНИЕ!
 Ресурс не предоставляет электронные версии произведений, а занимается лишь коллекционированием и каталогизацией ссылок, присылаемых и публикуемых на форуме нашими читателями. Если вы являетесь правообладателем какого-либо представленного материала и не желаете чтобы ссылка на него находилась в нашем каталоге, свяжитесь с нами и мы незамедлительно удалим её. Файлы для обмена на трекере предоставлены пользователями сайта, и администрация не несёт ответственности за их содержание. Просьба не заливать файлы, защищенные авторскими правами, а также файлы нелегального содержания!