На всех торрентах на трекере установлена скидка на скачивание в размере 100 процентов(а).
 Возможность скачивания торрента НЕ зависит от ограничений при низком ратио, низком аплоаде, требуемом ратио или требуемом аплоаде.


Начать новую тему Ответить на тему
Статистика раздачи
Размер: 7.95 ГБ | Добавлен: 23 сен 2013, 12:00 | Скачали: 1
Сидеров: 9  [0 байт/сек]    Личеров: 10  [0 байт/сек]
Пред. тема | След. тема 

Автор
Сообщение

СообщениеДобавлено: 23 сен 2013, 12:00 

Убийца
Point of No Return
«The Government gave her a choice. Death. Or life as an assassin. Now, there's no turning back.»
Год выпуска: 1993
Страна: США
Жанр: боевик, триллер, криминал
Продолжительность: 01:48:22
Перевод: Профессиональный (дублированный)
Субтитры: Russian (UTF-8), English (UTF-8)
Режиссер: Джон Бэдэм


В ролях: Бриджит Фонда / Bridget Fonda (Maggie Hayward, Claudia Anne Doran, Nina), Гэбриел Бирн / Gabriel Byrne (Bob), Дермот Малруни / Dermot Mulroney (J.P.), Мигель Феррер / Miguel Ferrer (Kaufman), Энн Бэнкрофт / Anne Bancroft (Amanda), Оливия д’Або / Olivia d'Abo (Angela), Ричард Романус / Richard Romanus (Fahd Bahktiar), Харви Кейтель / Harvey Keitel (Victor the Cleaner), Лоррейн Туссен / Lorraine Toussaint (Beth), Джеффри Льюис / Geoffrey Lewis (Drugstore Owner)

Описание: Жестокая, напичканная наркотиками, она была обвинена в убийстве и приговорена к смерти. Но секретная государственная служба превратила эту женщину из обитательницы камеры смертников в убийцу-профессионала, живущего взаймы…



Рейтинг MPAA: Лицам до 17 лет обязательно присутствие взрослого
Рейтинг ВКИП: для детей старше 16 лет



Качество: BDRip1080p
Формат: MKV
Видео кодек: H.264 (AVC)
Аудио кодеk: AC3
Видео: 1900x794 (2.40:1), 23.976 fps, AVC, 9482 Kbps
Аудио: Аудио #1: AC3, 384 Kbps, 48.0 KHz, 6 ch RUS Dub
Аудио #2: AC3, 640 Kbps, 48.0 KHz, 6 ch ENG



x264 [info]: frame I:847 Avg QP:20.02 size:126509
x264 [info]: frame P:30301 Avg QP:21.64 size: 64940
x264 [info]: frame B:124705 Avg QP:22.08 size: 45102
*******************************************************
General
Unique ID : 170479764657983957811752866273001198518 (0x8041355784F72B3488691FE91287D3B6)
Complete name : Point.of.No.Return.1993.1080p.F-HD.mkv
Format : Matroska
Format version : Version 4 / Version 2
File size : 7.95 GiB
Duration : 1h 48mn
Overall bit rate : 10.5 Mbps
Encoded date : UTC 2013-09-22 20:14:36
Writing application : mkvmerge v6.4.1 ('Omega Point') built on Sep 16 2013 22:05:10
Writing library : libebml v1.3.0 + libmatroska v1.4.1

Video
ID : 1
Format : AVC
Format/Info : Advanced Video Codec
Format profile : High@L4.1
Format settings, CABAC : Yes
Format settings, ReFrames : 5 frames
Codec ID : V_MPEG4/ISO/AVC
Duration : 1h 48mn
Bit rate : 9 482 Kbps
Width : 1 900 pixels
Height : 794 pixels
Display aspect ratio : 2.40:1
Frame rate mode : Constant
Frame rate : 23.976 fps
Color space : YUV
Chroma subsampling : 4:2:0
Bit depth : 8 bits
Scan type : Progressive
Bits/(Pixel*Frame) : 0.262
Stream size : 7.01 GiB (88%)
Writing library : x264 core 138 r2359+704+48 3f879a0 tMod [8-bit@all X86_64]
Encoding settings : cabac=1 / ref=5 / deblock=1:-3:-3 / analyse=0x3:0x113 / me=umh / subme=11 / psy=1 / fade_compensate=0.00 / psy_rd=0.90:0.25 / mixed_ref=1 / me_range=64 / chroma_me=1 / trellis=2 / 8x8dct=1 / cqm=0 / deadzone=21,11 / fast_pskip=0 / chroma_qp_offset=-4 / threads=6 / lookahead_threads=1 / sliced_threads=0 / nr=0 / decimate=1 / interlaced=0 / bluray_compat=0 / constrained_intra=0 / fgo=0 / bframes=9 / b_pyramid=2 / b_adapt=2 / b_bias=0 / direct=3 / weightb=1 / open_gop=0 / weightp=2 / keyint=250 / keyint_min=23 / scenecut=40 / intra_refresh=0 / rc_lookahead=120 / rc=2pass / mbtree=1 / bitrate=9482 / ratetol=1.0 / qcomp=0.75 / qpmin=0:0:0 / qpmax=69:69:69 / qpstep=4 / cplxblur=20.0 / qblur=0.5 / vbv_maxrate=50000 / vbv_bufsize=62500 / nal_hrd=none / ip_ratio=1.40 / aq=4:0.80 / aq-sensitivity=10.00 / aq-factor=1.00:1.00:1.00 / aq2=1:1.00 / aq2-sensitivity=15.00 / aq2-factor=1.00:1.00:1.00 / aq3=0
Language : English
Default : Yes
Forced : No
Matrix coefficients : BT.709

Audio #1
ID : 2
Format : AC-3
Format/Info : Audio Coding 3
Mode extension : CM (complete main)
Format settings, Endianness : Big
Codec ID : A_AC3
Duration : 1h 48mn
Bit rate mode : Constant
Bit rate : 384 Kbps
Channel(s) : 6 channels
Channel positions : Front: L C R, Side: L R, LFE
Sampling rate : 48.0 KHz
Bit depth : 16 bits
Compression mode : Lossy
Stream size : 298 MiB (4%)
Language : Russian
Default : Yes
Forced : No

Audio #2
ID : 3
Format : AC-3
Format/Info : Audio Coding 3
Mode extension : CM (complete main)
Format settings, Endianness : Big
Codec ID : A_AC3
Duration : 1h 48mn
Bit rate mode : Constant
Bit rate : 640 Kbps
Channel(s) : 6 channels
Channel positions : Front: L C R, Side: L R, LFE
Sampling rate : 48.0 KHz
Bit depth : 16 bits
Compression mode : Lossy
Stream size : 496 MiB (6%)
Language : English
Default : No
Forced : No

Text #1
ID : 4
Format : UTF-8
Codec ID : S_TEXT/UTF8
Codec ID/Info : UTF-8 Plain Text
Language : Russian
Default : No
Forced : No

Text #2
ID : 5
Format : UTF-8
Codec ID : S_TEXT/UTF8
Codec ID/Info : UTF-8 Plain Text
Language : English
Default : No
Forced : No

Menu
00:00:00.000 : en:00:00:00.000
00:05:29.202 : en:00:05:29.202
00:08:33.846 : en:00:08:33.846
00:12:25.077 : en:00:12:25.077
00:16:06.924 : en:00:16:06.924
00:17:54.656 : en:00:17:54.656
00:21:55.689 : en:00:21:55.689
00:26:57.949 : en:00:26:57.949
00:29:32.270 : en:00:29:32.270
00:32:17.852 : en:00:32:17.852
00:39:53.265 : en:00:39:53.265
00:42:29.880 : en:00:42:29.880
00:47:20.003 : en:00:47:20.003
00:50:42.789 : en:00:50:42.789
00:53:55.357 : en:00:53:55.357
00:55:33.329 : en:00:55:33.329
00:59:54.173 : en:00:59:54.173
01:01:48.371 : en:01:01:48.371
01:05:42.897 : en:01:05:42.897
01:09:17.778 : en:01:09:17.778
01:16:18.907 : en:01:16:18.907
01:19:22.048 : en:01:19:22.048
01:21:55.869 : en:01:21:55.869
01:24:41.076 : en:01:24:41.076
01:27:47.303 : en:01:27:47.303
01:30:10.196 : en:01:30:10.196
01:35:18.587 : en:01:35:18.587
01:39:25.376 : en:01:39:25.376
01:42:53.876 : en:01:42:53.876
01:44:51.368 : en:01:44:51.368
01:48:20.118 : en:01:48:20.118
★ Режиссер фильма Джон Бэдэм снялся в эпизодической роли уборщика из отеля.








Релиз от:
загрузка...
Правила, инструкции, FAQ!!!
Торрент  Добавлен [23 сен 2013, 12:00] Скачать торрент
Скачать торрент
[ Размер 40.21 КБ / Просмотров 9 ]

Статус  
 
Размер  7.95 ГБ
Приватный: Нет (DHT включён)
.torrent скачан  1
Как залить торрент? | Как скачать Torrent? | Как смотреть и слушать онлайн?  


     Отправить личное сообщение
   
Страница 1 из 1
Показать сообщения за:  Поле сортировки  
Начать новую тему Ответить на тему

   Похожие торренты   Автор   Ответы   Просмотры   Последнее сообщение 
В этой теме нет новых непрочитанных сообщений. Скачать торрент Проверен Коrsика - Точка Невозврата (2012) [FLAC|Lossless]<Heavy Metal>

в форуме Русский рок, Размер: 292.96 МБ, Здоровье: ???%

Anonymous

0
0|4

52
0

11 авг 2014, 09:21

Anonymous Перейти к последнему сообщению

В этой теме нет новых непрочитанных сообщений. Скачать торрент Проверен (Rock / Choza Music) Полюса - Точка невозврата - 2012, MP3, 320 kbps

в форуме Русский Рок, Размер: 142.11 МБ, Здоровье: 0%

Anonymous

0
0|0

2
0

22 авг 2016, 14:02

Anonymous Перейти к последнему сообщению

В этой теме нет новых непрочитанных сообщений. Скачать торрент Проверен Плачущий убийца / Crying Freeman (1995) BDRip 1080p | P, A

в форуме 720p | 1080p, Размер: 11.24 ГБ, Здоровье: 100%

Anonymous

0
4|1

52
34

06 июн 2014, 21:11

Anonymous Перейти к последнему сообщению

В этой теме нет новых непрочитанных сообщений. Скачать торрент Проверен Точка прерывания / Termination Point (2007) DVDRip

в форуме Фантастика, Фэнтези, Размер: 1.37 ГБ, Здоровье: 100%

Anonymous

0
19|2

60
430

25 авг 2014, 20:08

Anonymous Перейти к последнему сообщению

В этой теме нет новых непрочитанных сообщений. Скачать торрент Проверен M. Pottenger / М. Поттенджер - The East Point and the Antivertex / Восточная точка и Антивертекс. [2010, PDF, RUS]

в форуме Астрология, Размер: 9.61 МБ, Здоровье: 0%

Anonymous

0
0|0

1
0

11 сен 2016, 23:07

Anonymous Перейти к последнему сообщению



Сейчас этот форум просматривают: нет зарегистрированных пользователей и гости: 2


Вы не можете начинать темы
Вы не можете отвечать на сообщения
Вы не можете редактировать свои сообщения
Вы не можете удалять свои сообщения
Вы не можете добавлять вложения

Перейти:  

!ВНИМАНИЕ!
 Ресурс не предоставляет электронные версии произведений, а занимается лишь коллекционированием и каталогизацией ссылок, присылаемых и публикуемых на форуме нашими читателями. Если вы являетесь правообладателем какого-либо представленного материала и не желаете чтобы ссылка на него находилась в нашем каталоге, свяжитесь с нами и мы незамедлительно удалим её. Файлы для обмена на трекере предоставлены пользователями сайта, и администрация не несёт ответственности за их содержание. Просьба не заливать файлы, защищенные авторскими правами, а также файлы нелегального содержания!