На всех торрентах на трекере установлена скидка на скачивание в размере 100 процентов(а).
 Возможность скачивания торрента НЕ зависит от ограничений при низком ратио, низком аплоаде, требуемом ратио или требуемом аплоаде.


Начать новую тему Ответить на тему
Статистика раздачи
Размер: 2.01 ГБ | Добавлен: 22 сен 2013, 14:09 | Скачали: 0
Сидеров: 0  [0 байт/сек]    Личеров: 0  [0 байт/сек]
Пред. тема | След. тема 

Автор
Сообщение

СообщениеДобавлено: 22 сен 2013, 14:09 

Название: Сказки на ночь
Оригинальное название: Bedtime Stories
Год выхода: 2008
Жанр: фэнтези, комедия, семейный
Режиссер: Адам Шенкман

В ролях: Адам Сэндлер, Кери Расселл, Гай Пирс, Расселл Брэнд, Ричард Гриффитс, Тереза Палмер, Люси Лоулесс, Кортни Кокс, Джонатан Морган Хейт, Лаура Энн Кеслинг

О фильме:
Отец Скитера Бронсона владел небольшой семейной гостиницей, но был вынужден продать её за долги. После этого сам Скитер (Адам Сэндлер), работавший в гостинице с детства, оказался в ней не управляющим, а разнорабочим… Однажды Скитер был вынужден сочинить и рассказать своим племянникам сказку. И он был невероятно поражён, когда на следующий день события его сказки стали былью. Поняв феномен произошедшего, Скитер решил наладить свою жизнь, но совершил несколько ошибок. Впрочем, он смог не только осознать их, но и самостоятельно исправить. И в результате не только совершил несколько достойных поступков, но и обрёл своё счастье.



Страна: США
Студия: Walt Disney Pictures, Happy Madison Productions, Gunn Films Offspring Entertainment
Продолжительность: 01:39:14
Перевод: Дублированный

Файл
Кодек: h.264
Качество: BDRip-AVC
Видео: 2123 Кбит/с, 1024x436, 23.976 кадр/с
Аудио: Русский, английский (AC3, 6 ch, 384 Кбит/с)
Субтитры: Русские, английские

-------------------------------------------------------------------
x264 [info]: frame I:1722 Avg QP:17.85 size: 77641
x264 [info]: frame P:35494 Avg QP:20.85 size: 21268
x264 [info]: frame B:105537 Avg QP:22.29 size: 6550
-------------------------------------------------------------------

Полное имя : Bedtime.Stories.2008.x264.BDRip.(AVC).0ptimus.mkv
Формат : Matroska
Версия формата : Version 4 / Version 2
Размер файла : 2,01 Гбайт
Продолжительность : 1 ч. 39 м.
Общий поток : 2893 Кбит/сек
Название фильма : Сказки на ночь | Bedtime Stories [2008] -=BDRip (AVC) by 0ptimus=-
Дата кодирования : UTC 2013-09-17 13:00:07
Программа кодирования : mkvmerge v6.1.0 ('Old Devil') built on Mar 2 2013 14:32:37
Библиотека кодирования : libebml v1.3.0 + libmatroska v1.4.0

Видео
Идентификатор : 1
Формат : AVC
Формат/Информация : Advanced Video Codec
Профиль формата : High@L4.1
Параметр CABAC формата : Да
Параметр ReFrames формата : 9 кадров
Идентификатор кодека : V_MPEG4/ISO/AVC
Продолжительность : 1 ч. 39 м.
Битрейт : 2123 Кбит/сек
Ширина : 1024 пикселя
Высота : 436 пикселей
Соотношение сторон : 2,35:1
Частота кадров : 23,976 кадра/сек
Цветовое пространство : YUV
Субдискретизация насыщенности : 4:2:0
Битовая глубина : 8 бит
Тип развёртки : Прогрессивная
Бит/(Пиксели*Кадры) : 0.198
Размер потока : 1,43 Гбайт (71%)
Заголовок : Rip by 0ptimus
Библиотека кодирования : x264 core 133 r2334 a3ac64b
Настройки программы : cabac=1 / ref=9 / deblock=1:-3:-3 / analyse=0x3:0x113 / me=umh / subme=11 / psy=1 / psy_rd=1.00:0.20 / mixed_ref=1 / me_range=48 / chroma_me=1 / trellis=2 / 8x8dct=1 / cqm=0 / deadzone=21,11 / fast_pskip=0 / chroma_qp_offset=-3 / threads=4 / lookahead_threads=1 / sliced_threads=0 / nr=0 / decimate=0 / interlaced=0 / bluray_compat=0 / constrained_intra=0 / bframes=11 / b_pyramid=2 / b_adapt=2 / b_bias=0 / direct=3 / weightb=1 / open_gop=0 / weightp=2 / keyint=240 / keyint_min=23 / scenecut=40 / intra_refresh=0 / rc_lookahead=40 / rc=2pass / mbtree=0 / bitrate=2123 / ratetol=1.0 / qcomp=0.60 / qpmin=0 / qpmax=69 / qpstep=4 / cplxblur=20.0 / qblur=0.5 / vbv_maxrate=50000 / vbv_bufsize=50000 / nal_hrd=none / ip_ratio=1.40 / pb_ratio=1.30 / aq=1:1.00
Язык : English

Аудио #1
Идентификатор : 2
Формат : AC-3
Формат/Информация : Audio Coding 3
Расширение режима : CM (complete main)
Идентификатор кодека : A_AC3
Продолжительность : 1 ч. 39 м.
Вид битрейта : Постоянный
Битрейт : 384 Кбит/сек
Каналы : 6 каналов
Расположение каналов : Front: L C R, Side: L R, LFE
Частота : 48,0 КГц
Битовая глубина : 16 бит
Метод сжатия : С потерями
Размер потока : 273 Мбайт (13%)
Заголовок : Дублированный AC3 5.1 @ 384 kbps
Язык : Russian

Аудио #2
Идентификатор : 3
Формат : AC-3
Формат/Информация : Audio Coding 3
Расширение режима : CM (complete main)
Идентификатор кодека : A_AC3
Продолжительность : 1 ч. 39 м.
Вид битрейта : Постоянный
Битрейт : 384 Кбит/сек
Каналы : 6 каналов
Расположение каналов : Front: L C R, Side: L R, LFE
Частота : 48,0 КГц
Битовая глубина : 16 бит
Метод сжатия : С потерями
Размер потока : 273 Мбайт (13%)
Заголовок : AC3 5.1 @ 384 kbps
Язык : English

Текст #1
Идентификатор : 4
Формат : UTF-8
Идентификатор кодека : S_TEXT/UTF8
Идентификатор кодека/Информация : UTF-8 Plain Text
Заголовок : Форсированные №1
Язык : Russian

Текст #2
Идентификатор : 5
Формат : UTF-8
Идентификатор кодека : S_TEXT/UTF8
Идентификатор кодека/Информация : UTF-8 Plain Text
Заголовок : Полные №1
Язык : Russian

Текст #3
Идентификатор : 6
Формат : UTF-8
Идентификатор кодека : S_TEXT/UTF8
Идентификатор кодека/Информация : UTF-8 Plain Text
Заголовок : Форсированные №2
Язык : Russian

Текст #4
Идентификатор : 7
Формат : UTF-8
Идентификатор кодека : S_TEXT/UTF8
Идентификатор кодека/Информация : UTF-8 Plain Text
Заголовок : Полные №2
Язык : Russian

Текст #5
Идентификатор : 8
Формат : UTF-8
Идентификатор кодека : S_TEXT/UTF8
Идентификатор кодека/Информация : UTF-8 Plain Text
Язык : English

Меню
00:00:00.000 : :Opening Church
00:05:28.702 : :The Sunny Vista Mega Nottingham
00:09:19.724 : :Bobbi's Birthday Party
00:14:44.758 : :Uncle Skeeter Babysits
00:19:02.432 : :Sir Fixalot
00:24:25.338 : :Skeeter Gets a Shot
00:30:07.263 : :Raining Gumballs
00:35:06.978 : :Wild West Adventure
00:40:27.800 : :Paparazzi Princess in Distress
00:45:15.462 : :Rooftop Campout
00:52:11.920 : :Legend of Skeetacus
00:56:57.288 : :Day at the Beach
01:03:36.020 : :Space Odyssey
01:08:50.459 : :Fire Prevention
01:14:21.290 : :Skeeter Hotel Theme
01:19:25.802 : :"the Sad Part"
01:23:05.146 : :Demolition!
01:26:24.304 : :Happy Ending
01:30:36.597 : :Marty's Motel
01:32:34.298 : :Closing Credits
01:39:13.948 : :End




Релиз от:
загрузка...
Правила, инструкции, FAQ!!!
Торрент  Добавлен [22 сен 2013, 14:09] Скачать торрент
Скачать торрент
[ Размер 20.63 КБ / Просмотров 9 ]

Статус  
 
Размер  2.01 ГБ
Приватный: Нет (DHT включён)
.torrent скачан  0
Как залить торрент? | Как скачать Torrent? | Как смотреть и слушать онлайн?  


     Отправить личное сообщение
   
Страница 1 из 1
Показать сообщения за:  Поле сортировки  
Начать новую тему Ответить на тему

   Похожие торренты   Автор   Ответы   Просмотры   Последнее сообщение 
В этой теме нет новых непрочитанных сообщений. Скачать торрент Сказки на ночь / Bedtime Stories (2008) BDRip 1080p

в форуме 720p | 1080p, Размер: 5.77 ГБ, Здоровье: 100%

Anonymous

0
25|0

24
498

20 апр 2014, 20:46

Anonymous Перейти к последнему сообщению

В этой теме нет новых непрочитанных сообщений. Скачать торрент Сказки на ночь / Bedtime stories (Адам Шенкман / Adam Shankman) [2008, США, комедия, фэнтази, семейный, BDRip-AVC] Dub

в форуме Комедии, Размер: 2.91 ГБ, Здоровье: 0%

Anonymous

0
0|0

30
0

02 апр 2014, 12:06

Anonymous Перейти к последнему сообщению

В этой теме нет новых непрочитанных сообщений. Скачать торрент Сказки на ночь / Bedtime Stories (Адам Шенкман / Adam Shankman) [2008, США, фэнтези, комедия, семейный, HDRip] MVO

в форуме Детское, Семейное кино, Размер: 704.33 МБ, Здоровье: 0%

Anonymous

0
0|0

58
0

06 фев 2014, 11:44

Anonymous Перейти к последнему сообщению

В этой теме нет новых непрочитанных сообщений. Скачать торрент Сказки на ночь / Bedtime Stories (Адам Шенкман / Adam Shankman) [2008 г., фэнтези, комедия, семейный, HDRip-AVC]

в форуме 720p | 1080p, Размер: 2.18 ГБ, Здоровье: 0%

Anonymous

0
0|0

25
0

19 фев 2014, 11:41

Anonymous Перейти к последнему сообщению

В этой теме нет новых непрочитанных сообщений. Скачать торрент Проверен (Pop) Madonna - Bedtime Stories - 1994, FLAC (image+.cue), lossless

в форуме Зарубежная музыка, Размер: 498.92 МБ, Здоровье: 100%

Anonymous

0
9|3

0
0

17 авг 2016, 12:22

Anonymous Перейти к последнему сообщению



Сейчас этот форум просматривают: нет зарегистрированных пользователей и гости: 1


Вы не можете начинать темы
Вы не можете отвечать на сообщения
Вы не можете редактировать свои сообщения
Вы не можете удалять свои сообщения
Вы не можете добавлять вложения

Перейти:  

!ВНИМАНИЕ!
 Ресурс не предоставляет электронные версии произведений, а занимается лишь коллекционированием и каталогизацией ссылок, присылаемых и публикуемых на форуме нашими читателями. Если вы являетесь правообладателем какого-либо представленного материала и не желаете чтобы ссылка на него находилась в нашем каталоге, свяжитесь с нами и мы незамедлительно удалим её. Файлы для обмена на трекере предоставлены пользователями сайта, и администрация не несёт ответственности за их содержание. Просьба не заливать файлы, защищенные авторскими правами, а также файлы нелегального содержания!