На всех торрентах на трекере установлена скидка на скачивание в размере 100 процентов(а).
 Возможность скачивания торрента НЕ зависит от ограничений при низком ратио, низком аплоаде, требуемом ратио или требуемом аплоаде.


Начать новую тему Ответить на тему
Статистика раздачи
Размер: 2.92 ГБ | Добавлен: 21 сен 2013, 23:46 | Скачали: 11
Сидеров: 6  [0 байт/сек]    Личеров: 0  [0 байт/сек]
Пред. тема | След. тема 

Автор
Сообщение

СообщениеДобавлено: 21 сен 2013, 23:46 

Название: Рука, качающая колыбель
Оригинальное название: The Hand That Rocks the Cradle
Год выхода: 1992
Жанр: Триллер, драма
Режиссер: Кёртис Хэнсон

В ролях: Аннабелла Шиорра, Ребекка Де Морнэй, Мэтт МакКой, Эрни Хадсон, Джулианна Мур, Мадлен Зима, Джон де Ланси, Кевин Скаусен, Митчелл Лоранс, Эрик Меландер, Дженнифер Меландер, Эшли Меландер, Клифф Ленц, Мэри Энн Оуэн, Тодд Джемисон, Лаура Ферри, Ди Ди Ван Зиль

О фильме:
Муж Пэйтон Фландерс, обвиненный в сексуальных домогательствах к своим пациенткам, кончает жизнь самоубийством. Потрясение с этим связанное приводит к преждевременным родам и ребенок Пэйтон рождается мертвым. Кто-то должен заплатить за это, и Пэйтон устраивается сиделкой в дом женщины, которая первой выдвинула обвинения против ее мужа.


Страна: США
Студия: Hollywood Pictures, Interscope Communications, Nomura Babcock & Brown, Rock'n Cradle Productions
Продолжительность: 01:50:00
Перевод: Профессиональный (многоголосый закадровый), профессиональный (двухголосый закадровый), авторский (одноголосый закадровый)

Формат: mkv
Кодек: h264
Качество: BDRip-AVC
Видео: 2636 Кбит/с, 1024x554, 23.976 кадр/с

Звук:
• №1: Русский (AC3, 2 ch, 192 Кбит/с) Профессиональный многоголосый [ОРТ]
• №2: Русский (AC3, 2 ch, 192 Кбит/с) Профессиональный многоголосый [Видеосервис]
• №3: Русский (AC3, 2 ch, 192 Кбит/с) Профессиональный двухголосый [НТВ+]
• №4: Русский (AC3, 2 ch, 192 Кбит/с) Авторский одноголосый [Андрей Гаврилов]
• №5: Английский (AC3, 6 ch, 384 Кбит/с)

Субтитры: Русские, английские

---------------------------------------------------------------------------
x264 [info]: frame I:1270 Avg QP:17.22 size: 83330
x264 [info]: frame P:30928 Avg QP:20.11 size: 28788
x264 [info]: frame B:126544 Avg QP:21.05 size: 9367
---------------------------------------------------------------------------

Полное имя : The.Hand.That.Rocks.The.Cradle.1992.x264.BDRip.(AVC).0ptimus.mkv
Формат : Matroska
Версия формата : Version 4 / Version 2
Размер файла : 2,92 Гбайт
Продолжительность : 1 ч. 50 м.
Общий поток : 3785 Кбит/сек
Название фильма : Рука, качающая колыбель | The Hand That Rocks the Cradle [1992] -=BDRip (AVC) by 0ptimus=-
Дата кодирования : UTC 2013-09-20 06:44:40
Программа кодирования : mkvmerge v6.1.0 ('Old Devil') built on Mar 2 2013 14:32:37
Библиотека кодирования : libebml v1.3.0 + libmatroska v1.4.0

Видео
Идентификатор : 1
Формат : AVC
Формат/Информация : Advanced Video Codec
Профиль формата : High@L4.1
Параметр CABAC формата : Да
Параметр ReFrames формата : 9 кадров
Идентификатор кодека : V_MPEG4/ISO/AVC
Продолжительность : 1 ч. 50 м.
Битрейт : 2636 Кбит/сек
Ширина : 1024 пикселя
Высота : 554 пикселя
Соотношение сторон : 16:9
Частота кадров : 23,976 кадра/сек
Цветовое пространство : YUV
Субдискретизация насыщенности : 4:2:0
Битовая глубина : 8 бит
Тип развёртки : Прогрессивная
Бит/(Пиксели*Кадры) : 0.194
Размер потока : 1,97 Гбайт (68%)
Заголовок : Rip by 0ptimus
Библиотека кодирования : x264 core 133 r2334 a3ac64b
Настройки программы : cabac=1 / ref=9 / deblock=1:-3:-3 / analyse=0x3:0x113 / me=umh / subme=11 / psy=1 / psy_rd=1.00:0.20 / mixed_ref=1 / me_range=32 / chroma_me=1 / trellis=2 / 8x8dct=1 / cqm=0 / deadzone=21,11 / fast_pskip=0 / chroma_qp_offset=-3 / threads=4 / lookahead_threads=1 / sliced_threads=0 / nr=0 / decimate=0 / interlaced=0 / bluray_compat=0 / constrained_intra=0 / bframes=8 / b_pyramid=2 / b_adapt=2 / b_bias=0 / direct=3 / weightb=1 / open_gop=0 / weightp=2 / keyint=240 / keyint_min=23 / scenecut=40 / intra_refresh=0 / rc_lookahead=40 / rc=2pass / mbtree=0 / bitrate=2636 / ratetol=1.0 / qcomp=0.60 / qpmin=0 / qpmax=69 / qpstep=4 / cplxblur=20.0 / qblur=0.5 / vbv_maxrate=50000 / vbv_bufsize=50000 / nal_hrd=none / ip_ratio=1.40 / pb_ratio=1.30 / aq=1:1.00
Язык : English

Аудио #1
Идентификатор : 2
Формат : AC-3
Формат/Информация : Audio Coding 3
Расширение режима : CM (complete main)
Идентификатор кодека : A_AC3
Продолжительность : 1 ч. 50 м.
Вид битрейта : Постоянный
Битрейт : 192 Кбит/сек
Каналы : 2 канала
Расположение каналов : Front: L R
Частота : 48,0 КГц
Битовая глубина : 16 бит
Метод сжатия : С потерями
Размер потока : 152 Мбайт (5%)
Заголовок : Многоголосый закадровый [ОРТ] AC3 2.0 @ 192 kbps
Язык : Russian

Аудио #2
Идентификатор : 3
Формат : AC-3
Формат/Информация : Audio Coding 3
Расширение режима : CM (complete main)
Идентификатор кодека : A_AC3
Продолжительность : 1 ч. 50 м.
Вид битрейта : Постоянный
Битрейт : 192 Кбит/сек
Каналы : 2 канала
Расположение каналов : Front: L R
Частота : 48,0 КГц
Битовая глубина : 16 бит
Метод сжатия : С потерями
Размер потока : 152 Мбайт (5%)
Заголовок : Многоголосый закадровый [Видеосервис] AC3 2.0 @ 192 kbps
Язык : Russian

Аудио #3
Идентификатор : 4
Формат : AC-3
Формат/Информация : Audio Coding 3
Расширение режима : CM (complete main)
Идентификатор кодека : A_AC3
Продолжительность : 1 ч. 50 м.
Вид битрейта : Постоянный
Битрейт : 192 Кбит/сек
Каналы : 2 канала
Расположение каналов : Front: L R
Частота : 48,0 КГц
Битовая глубина : 16 бит
Метод сжатия : С потерями
Размер потока : 152 Мбайт (5%)
Заголовок : Двухголосый закадровый [НТВ+] AC3 2.0 @ 192 kbps
Язык : Russian

Аудио #4
Идентификатор : 5
Формат : AC-3
Формат/Информация : Audio Coding 3
Расширение режима : CM (complete main)
Идентификатор кодека : A_AC3
Продолжительность : 1 ч. 50 м.
Вид битрейта : Постоянный
Битрейт : 192 Кбит/сек
Каналы : 2 канала
Расположение каналов : Front: L R
Частота : 48,0 КГц
Битовая глубина : 16 бит
Метод сжатия : С потерями
Размер потока : 152 Мбайт (5%)
Заголовок : Авторский [Андрей Гаврилов] AC3 2.0 @ 192 kbps
Язык : Russian

Аудио #5
Идентификатор : 6
Формат : AC-3
Формат/Информация : Audio Coding 3
Расширение режима : CM (complete main)
Идентификатор кодека : A_AC3
Продолжительность : 1 ч. 50 м.
Вид битрейта : Постоянный
Битрейт : 384 Кбит/сек
Каналы : 6 каналов
Расположение каналов : Front: L C R, Side: L R, LFE
Частота : 48,0 КГц
Битовая глубина : 16 бит
Метод сжатия : С потерями
Размер потока : 303 Мбайт (10%)
Заголовок : AC3 5.1 @ 384 kbps
Язык : English

Текст #1
Идентификатор : 7
Формат : UTF-8
Идентификатор кодека : S_TEXT/UTF8
Идентификатор кодека/Информация : UTF-8 Plain Text
Язык : Russian

Текст #2
Идентификатор : 8
Формат : UTF-8
Идентификатор кодека : S_TEXT/UTF8
Идентификатор кодека/Информация : UTF-8 Plain Text
Язык : English

Меню
00:00:00.000 : en:00:00:00.000
00:07:52.180 : en:00:07:52.180
00:16:17.810 : en:00:16:17.810
00:26:18.911 : en:00:26:18.911
00:40:52.408 : en:00:40:52.408
00:48:04.465 : en:00:48:04.465
00:57:36.828 : en:00:57:36.828
01:04:35.497 : en:01:04:35.497
01:08:32.692 : en:01:08:32.692
01:16:28.751 : en:01:16:28.751
01:27:00.590 : en:01:27:00.590
01:35:48.034 : en:01:35:48.034
01:42:56.462 : en:01:42:56.462
01:47:10.591 : en:01:47:10.591




Релиз от:
загрузка...
Правила, инструкции, FAQ!!!
Торрент  Добавлен [21 сен 2013, 23:46] Скачать торрент
Скачать торрент
[ Размер 29.82 КБ / Просмотров 10 ]

Статус  
 
Размер  2.92 ГБ
Приватный: Нет (DHT включён)
.torrent скачан  11
Как залить торрент? | Как скачать Torrent? | Как смотреть и слушать онлайн?  


     Отправить личное сообщение
   
Страница 1 из 1
Показать сообщения за:  Поле сортировки  
Начать новую тему Ответить на тему

   Похожие торренты   Автор   Ответы   Просмотры   Последнее сообщение 
В этой теме нет новых непрочитанных сообщений. Скачать торрент Проверен Лара Крофт: Колыбель жизни / Lara Croft Tomb Raider: The Cradle of Life (2003) BDRip

в форуме Фантастика, Фэнтези, Размер: 2.18 ГБ, Здоровье: 100%

Anonymous

0
97|6

66
23

16 ноя 2014, 16:23

Anonymous Перейти к последнему сообщению

В этой теме нет новых непрочитанных сообщений. Скачать торрент Проверен Лара Крофт: Колыбель жизни / Lara Croft Tomb Raider: The Cradle of Life (2003) BDRip 1080p

в форуме 720p | 1080p, Размер: 5.77 ГБ, Здоровье: 100%

Anonymous

0
34|4

47
160

16 ноя 2014, 16:18

Anonymous Перейти к последнему сообщению

В этой теме нет новых непрочитанных сообщений. Скачать торрент Проверен Лара Крофт: Расхитительница гробниц 2 – Колыбель / Lara Croft Tomb Raider: The Cradle of Life (2003) BDRip 720p

в форуме 720p | 1080p, Размер: 3.83 ГБ, Здоровье: ???%

Anonymous

0
0|21

57
0

16 ноя 2014, 16:15

Anonymous Перейти к последнему сообщению

В этой теме нет новых непрочитанных сообщений. Скачать торрент Колыбель кошмаров / Cradle of Fear (Алекс Чендон / Alex Chandon) [2001, Великобритания, ужасы, DVDRip]

в форуме Ужасы, Размер: 1.46 ГБ, Здоровье: 100%

Anonymous

0
11|4

45
0

28 апр 2014, 22:41

Anonymous Перейти к последнему сообщению

В этой теме нет новых непрочитанных сообщений. Скачать торрент Проверен Ngaio Marsh / Найо Марш - Рука в перчатке / Hand in Glove [2013, PDF, RUS]

в форуме Зарубежная литература (XX и XXI век), Размер: 5.59 МБ, Здоровье: 100%

Anonymous

0
8|2

5
0

08 сен 2016, 19:33

Anonymous Перейти к последнему сообщению



Сейчас этот форум просматривают: нет зарегистрированных пользователей и гости: 1


Вы не можете начинать темы
Вы не можете отвечать на сообщения
Вы не можете редактировать свои сообщения
Вы не можете удалять свои сообщения
Вы не можете добавлять вложения

Перейти:  

!ВНИМАНИЕ!
 Ресурс не предоставляет электронные версии произведений, а занимается лишь коллекционированием и каталогизацией ссылок, присылаемых и публикуемых на форуме нашими читателями. Если вы являетесь правообладателем какого-либо представленного материала и не желаете чтобы ссылка на него находилась в нашем каталоге, свяжитесь с нами и мы незамедлительно удалим её. Файлы для обмена на трекере предоставлены пользователями сайта, и администрация не несёт ответственности за их содержание. Просьба не заливать файлы, защищенные авторскими правами, а также файлы нелегального содержания!