На всех торрентах на трекере установлена скидка на скачивание в размере 100 процентов(а).
 Возможность скачивания торрента НЕ зависит от ограничений при низком ратио, низком аплоаде, требуемом ратио или требуемом аплоаде.


Начать новую тему Ответить на тему
Статистика раздачи
Размер: 3.44 ГБ | Добавлен: 21 сен 2013, 23:12 | Скачали: 44
Сидеров: 14  [0 байт/сек]    Личеров: 3  [0 байт/сек]
Пред. тема | След. тема 

Автор
Сообщение

СообщениеДобавлено: 21 сен 2013, 23:12 

Название: Бойлерная
Оригинальное название: Boiler Room
Год выхода: 2000
Жанр: Триллер, драма, криминал
Режиссер: Бен Янгер

В ролях: Джованни Рибизи, Бен Аффлек, Вин Дизель, Ниа Лонг, Никки Кэт, Скотт Каан, Рон Рифкин, Джейми Кеннеди, Тейлор Николс, Билл Сэйдж, Том Эверетт Скотт

О фильме:
Задавались ли вы когда-нибудь вопросом, почему некоторые люди выигрывают в лотерею миллионы долларов, а вы нет? Почему вы зарабатываете 4 тыс. долларов в год, а секретарша из «Майкрософт» 140 тыс. долларов? Почему какой-то балбес раскатывает на новеньком «Феррари», а вы с трудом накопили на подержанный «Вольво»? Неужели эти люди умнее или лучше вас?!? Эти же вопросы задавал себе и Сэт Девис, молодой шулер, открывший в своей квартире небольшое подпольное казино. Судьба к нему благосклонна и один из клиентов, неимоверно богатый молодой человек, предлагает ему работать на некую брокерскую фирму, где месячная зарплата превышает годовой доход от его казино. Сет счастлив, его мечта осуществляется, деньги льются рекой, но вскоре он начинает понимать, что за все в жизни приходится расплачиваться...



Страна: США
Студия: New Line Cinema, Team Todd
Продолжительность: 01:59:29
Перевод: Профессиональный (многоголосый закадровый), профессиональный (двухголосый закадровый)


Кодек: h.264
Качество: BDRip-AVC
Видео: 2776 Кбит/с, 1024x576, 23.976 кадр/с

Звук:
• №1: Русский (АС3, 6 ch, 384 Кбит/с) Профессиональный многоголосый [Велес]
• №2: Английский (АС3, 6 ch, 384 Кбит/с)
Отдельно:
• №3: Русский (АС3, 2 ch, 192 Кбит/с) Профессиональный двухголосый
• №4: Украинский (АС3, 6 ch, 384 Кбит/с) Профессиональный многоголосый [Телеканал "Интер"]

Субтитры: Английские

---------------------------------------------------------------------------
x264 [info]: frame I:1666 Avg QP:17.47 size: 80423
x264 [info]: frame P:34237 Avg QP:20.24 size: 29790
x264 [info]: frame B:135989 Avg QP:21.66 size: 9804
---------------------------------------------------------------------------

Полное имя : Boiler.Room.2000.BDRip.(AVC).0ptimusBoiler.Room.2000.BDRip.(AVC).0ptimus.mkv
Формат : Matroska
Версия формата : Version 4 / Version 2
Размер файла : 2,96 Гбайт
Продолжительность : 1 ч. 59 м.
Общий поток : 3546 Кбит/сек
Название фильма : Бойлерная | Boiler Room [2000] -=BDRip (AVC) by 0ptimus=-
Дата кодирования : UTC 2013-09-16 10:14:59
Программа кодирования : mkvmerge v6.1.0 ('Old Devil') built on Mar 2 2013 14:32:37
Библиотека кодирования : libebml v1.3.0 + libmatroska v1.4.0

Видео
Идентификатор : 1
Формат : AVC
Формат/Информация : Advanced Video Codec
Профиль формата : High@L4.1
Параметр CABAC формата : Да
Параметр ReFrames формата : 9 кадров
Идентификатор кодека : V_MPEG4/ISO/AVC
Продолжительность : 1 ч. 59 м.
Битрейт : 2776 Кбит/сек
Ширина : 1024 пикселя
Высота : 576 пикселей
Соотношение сторон : 16:9
Частота кадров : 23,976 кадра/сек
Цветовое пространство : YUV
Субдискретизация насыщенности : 4:2:0
Битовая глубина : 8 бит
Тип развёртки : Прогрессивная
Бит/(Пиксели*Кадры) : 0.196
Размер потока : 2,26 Гбайт (76%)
Заголовок : Rip by 0ptimus
Библиотека кодирования : x264 core 133 r2334 a3ac64b
Настройки программы : cabac=1 / ref=9 / deblock=1:-3:-3 / analyse=0x3:0x113 / me=umh / subme=11 / psy=1 / psy_rd=1.00:0.20 / mixed_ref=1 / me_range=48 / chroma_me=1 / trellis=2 / 8x8dct=1 / cqm=0 / deadzone=21,11 / fast_pskip=0 / chroma_qp_offset=-3 / threads=4 / lookahead_threads=1 / sliced_threads=0 / nr=0 / decimate=0 / interlaced=0 / bluray_compat=0 / constrained_intra=0 / bframes=8 / b_pyramid=2 / b_adapt=2 / b_bias=0 / direct=3 / weightb=1 / open_gop=0 / weightp=2 / keyint=240 / keyint_min=23 / scenecut=40 / intra_refresh=0 / rc_lookahead=40 / rc=2pass / mbtree=0 / bitrate=2776 / ratetol=1.0 / qcomp=0.60 / qpmin=0 / qpmax=69 / qpstep=4 / cplxblur=20.0 / qblur=0.5 / vbv_maxrate=50000 / vbv_bufsize=50000 / nal_hrd=none / ip_ratio=1.40 / pb_ratio=1.30 / aq=1:1.00
Язык : English

Аудио #1
Идентификатор : 2
Формат : AC-3
Формат/Информация : Audio Coding 3
Расширение режима : CM (complete main)
Идентификатор кодека : A_AC3
Продолжительность : 1 ч. 59 м.
Вид битрейта : Постоянный
Битрейт : 384 Кбит/сек
Каналы : 6 каналов
Расположение каналов : Front: L C R, Side: L R, LFE
Частота : 48,0 КГц
Битовая глубина : 16 бит
Метод сжатия : С потерями
Размер потока : 328 Мбайт (11%)
Заголовок : Многоголосый закадровый [Велес] AC3 5.1 @ 384 kbps
Язык : Russian

Аудио #2
Идентификатор : 3
Формат : AC-3
Формат/Информация : Audio Coding 3
Расширение режима : CM (complete main)
Идентификатор кодека : A_AC3
Продолжительность : 1 ч. 59 м.
Вид битрейта : Постоянный
Битрейт : 384 Кбит/сек
Каналы : 6 каналов
Расположение каналов : Front: L C R, Side: L R, LFE
Частота : 48,0 КГц
Битовая глубина : 16 бит
Метод сжатия : С потерями
Размер потока : 328 Мбайт (11%)
Заголовок : AC3 5.1 @ 384 kbps
Язык : English

Текст
Идентификатор : 4
Формат : UTF-8
Идентификатор кодека : S_TEXT/UTF8
Идентификатор кодека/Информация : UTF-8 Plain Text
Язык : English

Меню
00:00:00.000 : Main Title/ Honor Is In the Door
00:05:02.934 : Knock of Fate
00:10:02.268 : "An Honest Living"
00:12:00.768 : An Offer from Greg
00:15:58.102 : Group Interview
00:22:58.102 : First Day
00:29:16.436 : A Couple of Tips
00:32:04.103 : "I've Never Heard of This Firm..."
00:33:54.603 : Wall Street
00:36:32.603 : "Reco!"
00:42:21.970 : Drinks for Two/ Drinks for Four
00:48:42.437 : "Act As If..."
00:50:49.771 : Seth Gets Pitched
00:52:27.605 : Boys Will Be Boys
00:56:55.105 : Casino Problems
00:59:16.605 : First Close
01:01:47.306 : Seth and Abbie
01:04:26.306 : Harry
01:07:55.140 : Series 7 Celebration
01:12:53.273 : The Building Next Door
01:14:19.974 : The Fortieth
01:15:54.608 : "Congratulations!"
01:18:10.108 : Seth Finds Nothing
01:21:59.275 : "Get Off Your Ass!"
01:24:17.609 : Harry Goes in Heavy
01:28:01.109 : "It's a Chop Shop..."
01:32:08.776 : "I Need Your Help!"
01:38:58.644 : Under Arrest
01:44:08.978 : Last Day
01:48:10.111 : "It's Time..."
01:52:43.445 : What If
01:54:01.112 : End Credits




Релиз от:
загрузка...
Правила, инструкции, FAQ!!!
Торрент  Добавлен [21 сен 2013, 23:12] Скачать торрент
Скачать торрент
[ Размер 18.16 КБ / Просмотров 8 ]

Статус  
 
Размер  3.44 ГБ
Приватный: Нет (DHT включён)
.torrent скачан  44
Как залить торрент? | Как скачать Torrent? | Как смотреть и слушать онлайн?  


     Отправить личное сообщение
   
Страница 1 из 1
Показать сообщения за:  Поле сортировки  
Начать новую тему Ответить на тему

   Похожие торренты   Автор   Ответы   Просмотры   Последнее сообщение 
В этой теме нет новых непрочитанных сообщений. Скачать торрент Проверен Бойлерная / Boiler Room (2000) HDRip | P

в форуме Триллеры, Размер: 745.66 МБ, Здоровье: 100%

Гость

0
33|5

205
107

06 июн 2015, 23:11

Гость Перейти к последнему сообщению

В этой теме нет новых непрочитанных сообщений. Скачать торрент Проверен (progressive metal) The Quiet Room - Reconceive - 2000, MP3, 320 kbps

в форуме Heavy, Power, Progressive (Metal), Размер: 137.48 МБ, Здоровье: 0%

Anonymous

0
0|0

0
0

09 окт 2016, 16:32

Anonymous Перейти к последнему сообщению

В этой теме нет новых непрочитанных сообщений. Скачать торрент Проверен (Pop-Rock) Christopher Cross - Red Room - 2000, FLAC (tracks+.cue), lossless

в форуме Зарубежная музыка, Размер: 325.69 МБ, Здоровье: 100%

Anonymous

0
5|1

5
0

16 авг 2016, 23:26

Anonymous Перейти к последнему сообщению

В этой теме нет новых непрочитанных сообщений. Скачать торрент Проверен (progressive metal) The Quiet Room - Reconceive - 2000, FLAC (image+.cue), lossless

в форуме Heavy, Power, Progressive (Metal), Размер: 419.14 МБ, Здоровье: 0%

Anonymous

0
0|0

3
0

10 окт 2016, 23:08

Anonymous Перейти к последнему сообщению

В этой теме нет новых непрочитанных сообщений. Скачать торрент Проверен (Progressive House, Tribal) Revolt - Moonlit Room - 2000, FLAC (tracks), lossless, Vinyl Rip

в форуме Электронная музыка (оцифровки), Размер: 151.24 МБ, Здоровье: 100%

Anonymous

0
1|0

1
0

14 сен 2016, 22:58

Anonymous Перейти к последнему сообщению



Сейчас этот форум просматривают: нет зарегистрированных пользователей и гости: 1


Вы не можете начинать темы
Вы не можете отвечать на сообщения
Вы не можете редактировать свои сообщения
Вы не можете удалять свои сообщения
Вы не можете добавлять вложения

Перейти:  

!ВНИМАНИЕ!
 Ресурс не предоставляет электронные версии произведений, а занимается лишь коллекционированием и каталогизацией ссылок, присылаемых и публикуемых на форуме нашими читателями. Если вы являетесь правообладателем какого-либо представленного материала и не желаете чтобы ссылка на него находилась в нашем каталоге, свяжитесь с нами и мы незамедлительно удалим её. Файлы для обмена на трекере предоставлены пользователями сайта, и администрация не несёт ответственности за их содержание. Просьба не заливать файлы, защищенные авторскими правами, а также файлы нелегального содержания!