На всех торрентах на трекере установлена скидка на скачивание в размере 100 процентов(а).
 Возможность скачивания торрента НЕ зависит от ограничений при низком ратио, низком аплоаде, требуемом ратио или требуемом аплоаде.


Начать новую тему Ответить на тему
Статистика раздачи
Размер: 7.05 ГБ | Добавлен: 21 сен 2013, 21:12 | Скачали: 0
Сидеров: 0  [0 байт/сек]    Личеров: 0  [0 байт/сек]
Пред. тема | След. тема 

Автор
Сообщение

СообщениеДобавлено: 21 сен 2013, 21:12 

Название: Хранители сокровищ
Оригинальное название: Treasure Guards
Год выпуска: 2011
Жанр: Приключения
Режиссер: Айэйн Б. МакДональд

В ролях: Анна Фрил, Рауль Бова, Фолькер Бруч, Акрам Элли, Хейн Де Фриз, Джордж Джейкос, Андре Джейкобс, Флорентина Ламе, Патрик Листер, Хосе Морейра Ваз

Описание: Во время раскопок археолог Виктория Картер находит древнюю карту, указывающую путь к Печати Соломона — древнему амулету, полученному царем от самого Бога! Не желая делиться открытием, Виктория решает немедленно отправиться на поиски. Но слухи распространяются очень быстро, тем более, что на Печать давно идет охота по всему миру! Так же узнают о находке и в Ватикане, откуда, опасаясь мощи хранящихся там артефактов, отправляют к Виктории на помощь известного ученого Тедди Картера. Он должен сделать все, чтобы Печать не попала в плохие руки!


Страна: Германия
Студия: Film Afrika Worldwide, Tandem Communications
Продолжительность: 01:36:00
Перевод: Профессиональный многоголосый


Качество: BDRip 720p
Видео: MPEG-4 AVC, 7200 Кбит/с, 1280x720, 24.000 кадр/с
Аудио #1: Русский (DTS, 6 ch, 1510 Кбит/с) / Профессиональный многоголосый
Аудио #2: Украинский (АС3, 2 ch, 192 Кбит/с)
Аудио #3: Английский (DTS, 6 ch, 1510 Кбит/с)
Субтитры: Русские, английские

Семпл



Общее
Уникальный идентификатор : 207925200493614389836055467014110051568 (0x9C6CEFDE130F0B129CBAA69D7277FCF0)
Полное имя : D:Mои раздачиHraniteli.sokrovisch.2011.BDRip.(720p)-MediaClub.mkv
Формат : Matroska
Версия формата : Version 4 / Version 2
Размер файла : 7,05 Гбайт
Продолжительность : 1 ч. 36 м.
Общий поток : 10,4 Мбит/сек
Название фильма : -=MediaClub-kaspr=-
Дата кодирования : UTC 2013-09-21 05:31:04
Программа кодирования : mkvmerge v6.3.0 ('You can't stop me!') built on Jul 19 2013 16:27:38
Библиотека кодирования : libebml v1.3.0 + libmatroska v1.4.1

Видео
Идентификатор : 1
Формат : AVC
Формат/Информация : Advanced Video Codec
Профиль формата : High@L4.1
Параметр CABAC формата : Да
Параметр ReFrames формата : 8 кадров
Идентификатор кодека : V_MPEG4/ISO/AVC
Продолжительность : 1 ч. 36 м.
Битрейт : 7200 Кбит/сек
Ширина : 1280 пикселей
Высота : 720 пикселей
Соотношение сторон : 16:9
Режим частоты кадров : Постоянный
Частота кадров : 24,000 кадра/сек
Цветовое пространство : YUV
Субдискретизация насыщенности : 4:2:0
Битовая глубина : 8 бит
Тип развёртки : Прогрессивная
Бит/(Пиксели*Кадры) : 0.326
Размер потока : 4,73 Гбайт (67%)
Заголовок : -=MediaClub-kaspr=-
Библиотека кодирования : x264 core 130 r2273 b3065e6
Настройки программы : cabac=1 / ref=8 / deblock=1:-3:-3 / analyse=0x3:0x133 / me=umh / subme=11 / psy=1 / psy_rd=1.00:0.20 / mixed_ref=1 / me_range=48 / chroma_me=1 / trellis=2 / 8x8dct=1 / cqm=0 / deadzone=21,11 / fast_pskip=0 / chroma_qp_offset=-3 / threads=12 / lookahead_threads=2 / sliced_threads=0 / nr=0 / decimate=0 / interlaced=0 / bluray_compat=0 / constrained_intra=0 / bframes=9 / b_pyramid=2 / b_adapt=2 / b_bias=0 / direct=3 / weightb=1 / open_gop=0 / weightp=2 / keyint=240 / keyint_min=24 / scenecut=40 / intra_refresh=0 / rc=2pass / mbtree=0 / bitrate=7200 / ratetol=1.0 / qcomp=0.60 / qpmin=0 / qpmax=69 / qpstep=4 / cplxblur=20.0 / qblur=0.5 / ip_ratio=1.40 / pb_ratio=1.30 / aq=1:1.00
Default : Да
Forced : Да

Аудио #1
Идентификатор : 2
Формат : DTS
Формат/Информация : Digital Theater Systems
Идентификатор кодека : A_DTS
Продолжительность : 1 ч. 36 м.
Вид битрейта : Постоянный
Битрейт : 1510 Кбит/сек
Каналы : 6 каналов
Расположение каналов : Front: L C R, Side: L R, LFE
Частота : 48,0 КГц
Битовая глубина : 16 бит
Метод сжатия : С потерями
Размер потока : 1,02 Гбайт (14%)
Заголовок : ПМ
Язык : Russian
Default : Да
Forced : Да

Аудио #2
Идентификатор : 3
Формат : AC-3
Формат/Информация : Audio Coding 3
Расширение режима : CM (complete main)
Параметр Endianness формата : Big
Идентификатор кодека : A_AC3
Продолжительность : 1 ч. 36 м.
Вид битрейта : Постоянный
Битрейт : 192 Кбит/сек
Каналы : 2 канала
Расположение каналов : Front: L R
Частота : 48,0 КГц
Битовая глубина : 16 бит
Метод сжатия : С потерями
Размер потока : 133 Мбайт (2%)
Заголовок : Укр
Язык : Ukrainian
Default : Нет
Forced : Нет

Аудио #3
Идентификатор : 4
Формат : DTS
Формат/Информация : Digital Theater Systems
Идентификатор кодека : A_DTS
Продолжительность : 1 ч. 36 м.
Вид битрейта : Постоянный
Битрейт : 1510 Кбит/сек
Каналы : 6 каналов
Расположение каналов : Front: L C R, Side: L R, LFE
Частота : 48,0 КГц
Битовая глубина : 16 бит
Метод сжатия : С потерями
Размер потока : 1,02 Гбайт (14%)
Заголовок : Англ
Язык : English
Default : Нет
Forced : Нет

Текст #1
Идентификатор : 5
Формат : UTF-8
Идентификатор кодека : S_TEXT/UTF8
Идентификатор кодека/Информация : UTF-8 Plain Text
Язык : Russian
Default : Нет
Forced : Нет

Текст #2
Идентификатор : 6
Формат : UTF-8
Идентификатор кодека : S_TEXT/UTF8
Идентификатор кодека/Информация : UTF-8 Plain Text
Язык : English
Default : Нет
Forced : Нет

Релиз:
загрузка...
Правила, инструкции, FAQ!!!
Торрент  Добавлен [21 сен 2013, 21:12] Скачать торрент
Скачать торрент
[ Размер 18.2 КБ / Просмотров 12 ]

Статус  
 
Размер  7.05 ГБ
Приватный: Нет (DHT включён)
.torrent скачан  0
Как залить торрент? | Как скачать Torrent? | Как смотреть и слушать онлайн?  


     Отправить личное сообщение
   
Страница 1 из 1
Показать сообщения за:  Поле сортировки  
Начать новую тему Ответить на тему

   Похожие торренты   Автор   Ответы   Просмотры   Последнее сообщение 
В этой теме нет новых непрочитанных сообщений. Скачать торрент Проверен Остров сокровищ / Treasure Island (1990) WEB-DL 720p | D, P, A

в форуме 720p | 1080p, Размер: 4.79 ГБ, Здоровье: 100%

Гость

0
139|70

85
181

25 июл 2015, 23:01

Гость Перейти к последнему сообщению

В этой теме нет новых непрочитанных сообщений. Скачать торрент Проверен Остров сокровищ / Treasure Island (1990) WEB-DLRip | D

в форуме Приключения, Размер: 1.46 ГБ, Здоровье: 100%

Anonymous

0
94|33

220
91

25 июл 2015, 23:05

Anonymous Перейти к последнему сообщению

В этой теме нет новых непрочитанных сообщений. Скачать торрент Хранители снов / Rise of the Guardians (2013) BDRip 720p | Лицензия

в форуме Зарубежные мультфильмы (HD Video), Размер: 4.36 ГБ, Здоровье: 100%

Anonymous

0
110|9

64
0

29 дек 2013, 11:35

Anonymous Перейти к последнему сообщению

В этой теме нет новых непрочитанных сообщений. Скачать торрент Сокровище нации / National Treasure (Джон Тёртелтауб / Jon Turteltaub) [2004, США, боевик, приключения, BDRip-AVC] [720p] Dub

в форуме Боевики, Размер: 4.33 ГБ, Здоровье: 100%

Anonymous

0
18|6

40
0

24 апр 2014, 14:08

Anonymous Перейти к последнему сообщению

В этой теме нет новых непрочитанных сообщений. Скачать торрент Проверен Treasure - Treasure (1977) [MP3|224 kbps]<Hard Rock>

в форуме Рок, Панк, Метал, Альтернатива, Размер: 52.63 МБ, Здоровье: 100%

Anonymous

0
456|20

54
0

29 июл 2014, 21:48

Anonymous Перейти к последнему сообщению



Сейчас этот форум просматривают: нет зарегистрированных пользователей и гости: 2


Вы не можете начинать темы
Вы не можете отвечать на сообщения
Вы не можете редактировать свои сообщения
Вы не можете удалять свои сообщения
Вы не можете добавлять вложения

Перейти:  

!ВНИМАНИЕ!
 Ресурс не предоставляет электронные версии произведений, а занимается лишь коллекционированием и каталогизацией ссылок, присылаемых и публикуемых на форуме нашими читателями. Если вы являетесь правообладателем какого-либо представленного материала и не желаете чтобы ссылка на него находилась в нашем каталоге, свяжитесь с нами и мы незамедлительно удалим её. Файлы для обмена на трекере предоставлены пользователями сайта, и администрация не несёт ответственности за их содержание. Просьба не заливать файлы, защищенные авторскими правами, а также файлы нелегального содержания!