На всех торрентах на трекере установлена скидка на скачивание в размере 100 процентов(а).
 Возможность скачивания торрента НЕ зависит от ограничений при низком ратио, низком аплоаде, требуемом ратио или требуемом аплоаде.


Начать новую тему Ответить на тему
Статистика раздачи
Размер: 7.92 ГБ | Добавлен: 20 сен 2013, 12:54 | Скачали: 0
Сидеров: 0  [0 байт/сек]    Личеров: 0  [0 байт/сек]
Пред. тема | След. тема 

Автор
Сообщение

СообщениеДобавлено: 20 сен 2013, 12:54 

Название: После нашей эры
Оригинальное название: After Earth
Год выпуска: 2013
Жанр: Фантастика, приключения, боевик
Режиссер: М. Найт Шьямалан
В ролях: Уилл Смит, Джейден Смит, Зои Кравиц, Изабель Фурман, Кристофер Хивджу, Софи Оконедо, Дэвид Денман, Гленн Моршауэр, Линкольн Льюис

Описание: События разворачиваются через тысячу лет после катастрофы, вынудившей человечество покинуть Землю. Новым домом становится планета под названием Нова Прайм. Легендарный генерал Сайфер Рейдж возвращается с очередного боевого задания в семью, которая раньше обходилась без его родительского внимания, чтобы стать отцом своему 13-летнему сыну Китаю. Во время астероидной бури летательный аппарат с папой и сыном на борту терпит крушение, падая на незнакомую и опасную Землю. И пока Рейдж-старший на последнем дыхании лежит среди обломков своего корабля, сын должен пересечь враждебный ландшафт, чтобы запустить их спасательный маячок. Ни о чем большем юноша в своей жизни не мечтал: быть солдатом, как отец, — его заветное желание. Сегодня у него есть шанс проявить себя.

Выпущено: США, Blinding Edge Pictures, Columbia Pictures, Overbrook Entertainment
Продолжительность: 01:40:02
Перевод: Дублированный [iTunes]



Качество: BDRip-1080p
Видео: MPEG-4 AVC, 9436 Кбит/с, 1920x808
Аудио rus: AC3, 6 ch, 384 Кбит/с
Аудио eng: DTS, 6 ch, 1510 Кбит/с

Семпл

Полное имя : K:After.Earth.2013.D.BDRip.1080p.mkv
Формат : Matroska
Версия формата : Version 2
Размер файла : 7,92 Гбайт
Продолжительность : 1 ч. 40 м.
Общий поток : 11,3 Мбит/сек
Дата кодирования : UTC 2013-09-20 00:54:27
Программа кодирования : mkvmerge v5.8.0 ('No Sleep / Pillow') built on Sep 2 2012 15:37:04
Библиотека кодирования : libebml v1.2.3 + libmatroska v1.3.0

Видео
Идентификатор : 1
Формат : AVC
Формат/Информация : Advanced Video Codec
Профиль формата : High@L4.1
Параметр CABAC формата : Да
Параметр ReFrames формата : 5 кадров
Идентификатор кодека : V_MPEG4/ISO/AVC
Продолжительность : 1 ч. 40 м.
Битрейт : 9436 Кбит/сек
Ширина : 1920 пикселей
Высота : 808 пикселей
Соотношение сторон : 2,40:1
Режим частоты кадров : Постоянный
Частота кадров : 23,976 кадра/сек
Цветовое пространство : YUV
Субдискретизация насыщенности : 4:2:0
Битовая глубина : 8 бит
Тип развёртки : Прогрессивная
Бит/(Пиксели*Кадры) : 0.254
Размер потока : 6,44 Гбайт (81%)
Заголовок : X264
Библиотека кодирования : x264 core 133 r2334 a3ac64b
Настройки программы : cabac=1 / ref=5 / deblock=1:0:0 / analyse=0x3:0x133 / me=umh / subme=7 / psy=1 / psy_rd=1.00:0.00 / mixed_ref=1 / me_range=16 / chroma_me=1 / trellis=1 / 8x8dct=1 / cqm=0 / deadzone=21,11 / fast_pskip=0 / chroma_qp_offset=-2 / threads=12 / lookahead_threads=2 / sliced_threads=0 / nr=0 / decimate=1 / interlaced=0 / bluray_compat=0 / constrained_intra=0 / bframes=3 / b_pyramid=2 / b_adapt=1 / b_bias=0 / direct=1 / weightb=1 / open_gop=0 / weightp=2 / keyint=250 / keyint_min=23 / scenecut=40 / intra_refresh=0 / rc_lookahead=40 / rc=2pass / mbtree=1 / bitrate=9436 / ratetol=1.0 / qcomp=0.60 / qpmin=0 / qpmax=69 / qpstep=4 / cplxblur=20.0 / qblur=0.5 / ip_ratio=1.40 / aq=1:1.00
Язык : English
Default : Да
Forced : Нет

Аудио #1
Идентификатор : 2
Формат : AC-3
Формат/Информация : Audio Coding 3
Расширение режима : CM (complete main)
Параметр Endianness формата : Big
Идентификатор кодека : A_AC3
Продолжительность : 1 ч. 40 м.
Вид битрейта : Постоянный
Битрейт : 384 Кбит/сек
Каналы : 6 каналов
Расположение каналов : Front: L C R, Side: L R, LFE
Частота : 48,0 КГц
Битовая глубина : 16 бит
Метод сжатия : С потерями
Размер потока : 275 Мбайт (3%)
Язык : Russian
Default : Да
Forced : Нет

Аудио #2
Идентификатор : 3
Формат : DTS
Формат/Информация : Digital Theater Systems
Режим : 16
Параметр Endianness формата : Big
Идентификатор кодека : A_DTS
Продолжительность : 1 ч. 40 м.
Вид битрейта : Постоянный
Битрейт : 1509 Кбит/сек
Каналы : 6 каналов
Расположение каналов : Front: L C R, Side: L R, LFE
Частота : 48,0 КГц
Битовая глубина : 24 бит
Метод сжатия : С потерями
Размер потока : 1,05 Гбайт (13%)
Заголовок : DTS
Язык : English
Default : Нет
Forced : Нет

Меню
00:00:00.000 : en:00:00:00.000
00:08:52.699 : en:00:08:52.699
00:15:36.394 : en:00:15:36.394
00:21:34.793 : en:00:21:34.793
00:30:50.557 : en:00:30:50.557
00:36:45.954 : en:00:36:45.954
00:41:14.430 : en:00:41:14.430
00:47:06.073 : en:00:47:06.073
00:52:36.320 : en:00:52:36.320
00:59:48.585 : en:00:59:48.585
01:05:25.797 : en:01:05:25.797
01:11:10.183 : en:01:11:10.183
01:15:47.334 : en:01:15:47.334
01:20:17.688 : en:01:20:17.688
01:24:38.782 : en:01:24:38.782
01:29:57.392 : en:01:29:57.392



загрузка...
Правила, инструкции, FAQ!!!
Торрент  Добавлен [20 сен 2013, 12:54] Скачать торрент
Скачать торрент
[ Размер 40.05 КБ / Просмотров 4 ]

Статус  
 
Размер  7.92 ГБ
Приватный: Нет (DHT включён)
.torrent скачан  0
Как залить торрент? | Как скачать Torrent? | Как смотреть и слушать онлайн?  


     Отправить личное сообщение
   
Страница 1 из 1
Показать сообщения за:  Поле сортировки  
Начать новую тему Ответить на тему

   Похожие торренты   Автор   Ответы   Просмотры   Последнее сообщение 
В этой теме нет новых непрочитанных сообщений. Скачать торрент Отец-молодец / Delivery Man (2013) BDRip 1080p | iTunes

в форуме 720p | 1080p, Размер: 9.01 ГБ, Здоровье: 0%

Anonymous

0
0|0

32
0

11 мар 2014, 12:55

Anonymous Перейти к последнему сообщению

В этой теме нет новых непрочитанных сообщений. Скачать торрент Проверен Как украсть бриллиант / Love Punch (2013) BDRip 1080p | iTunes

в форуме 720p | 1080p, Размер: 8.17 ГБ, Здоровье: 69%

Гость

0
46|66

16
96

30 ноя 2014, 10:16

Гость Перейти к последнему сообщению

В этой теме нет новых непрочитанных сообщений. Скачать торрент Проверен Мой Аттила Марсель / Attila Marcel (2013) BDRip 1080p | iTunes

в форуме 720p | 1080p, Размер: 8.59 ГБ, Здоровье: 100%

Гость

0
39|6

78
44

16 ноя 2015, 00:05

Гость Перейти к последнему сообщению

В этой теме нет новых непрочитанных сообщений. Скачать торрент Проверен Варкрафт / Warcraft (2016) BDRip 1080p | iTunes

в форуме 720p | 1080p, Размер: 9.32 ГБ, Здоровье: 54%

Гость

0
276|502

59
337

10 сен 2016, 10:15

Гость Перейти к последнему сообщению

В этой теме нет новых непрочитанных сообщений. Дивергент / Divergent (2014) BDRip 1080p | iTunes

в форуме Новинки кино, Размер: 10.21 ГБ, Здоровье: 100%

Anonymous

0
53|2

202
11

23 июл 2014, 15:43

Anonymous Перейти к последнему сообщению



Сейчас этот форум просматривают: нет зарегистрированных пользователей и гости: 2


Вы не можете начинать темы
Вы не можете отвечать на сообщения
Вы не можете редактировать свои сообщения
Вы не можете удалять свои сообщения
Вы не можете добавлять вложения

Перейти:  

!ВНИМАНИЕ!
 Ресурс не предоставляет электронные версии произведений, а занимается лишь коллекционированием и каталогизацией ссылок, присылаемых и публикуемых на форуме нашими читателями. Если вы являетесь правообладателем какого-либо представленного материала и не желаете чтобы ссылка на него находилась в нашем каталоге, свяжитесь с нами и мы незамедлительно удалим её. Файлы для обмена на трекере предоставлены пользователями сайта, и администрация не несёт ответственности за их содержание. Просьба не заливать файлы, защищенные авторскими правами, а также файлы нелегального содержания!