На всех торрентах на трекере установлена скидка на скачивание в размере 100 процентов(а).
 Возможность скачивания торрента НЕ зависит от ограничений при низком ратио, низком аплоаде, требуемом ратио или требуемом аплоаде.


Начать новую тему Ответить на тему
Статистика раздачи
Размер: 7.75 ГБ | Добавлен: 17 сен 2013, 09:29 | Скачали: 0
Сидеров: 0  [0 байт/сек]    Личеров: 0  [0 байт/сек]
Пред. тема | След. тема 

Автор
Сообщение

СообщениеДобавлено: 17 сен 2013, 09:29 

Информация о фильме
Название: Жизнь, как она есть
Оригинальное название: Life as We Know It
Год выхода: 2010
Жанр: комедия, драма
Режиссер: Грег Берланти
В ролях: Кэтрин Хайгл, Джош Дюамель, Джош Лукас, Алексис Кладжетт, Бринн Кладжетт, Брук Клагетт, Хэйес МакАртур, Кристина Хендрикс, Сара Барнс, Джессика Ст. Клэр

О фильме:
Холли Беренсон - владелец кондитерской, Эрик Мессер - многообещающий директор спортивной сети. После рокового первого свидания единственное, что у них теперь общее, - это ненависть друг к другу и любовь к крестнице Софи. Но когда внезапно они становятся единственными, кто остается у Софи, Холли и Мессер вынуждены забыть о собственных несовпадениях. В попытке состыковать карьерные амбиции и несхожие планы досуга им всё-таки придется найти хоть что-то их объединяющее, ведь отныне им предстоит поселиться под одной крышей.



Выпущено: США
Студия: Warner Bros.
Продолжительность: 01:54:39
Перевод: Дублированный + Украинский + Оригинал

Файл
Кодек: x264
Качество: BDRip (источник: Blu-ray Disc)
Видео: 1920x800 (2,40:1), 23.976 fps, 8277 kbps
Аудио #1: AC-3, 6 ch, 384 kbps (Rus)
Аудио #2: AC-3, 6 ch, 384 kbps (Ukr)
Аудио #3: AC-3, 6 ch, 640 kbps (Eng)
Субтитры: Русские (Forced), Русские, Английские
Скачать: семпл

Общее
Уникальный идентификатор : 215278220475717895691969695092304944743 (0xA1F513BE0FBE12E5BC22896806929E67)
Полное имя : E:Life.As.We.Know.It.2010.BDRip.1080p.Rus.Ukr.Eng.mkv
Формат : Matroska
Версия формата : Version 4 / Version 2
Размер файла : 7,75 Гбайт
Продолжительность : 1 ч. 54 м.
Общий поток : 9682 Кбит/сек
Название фильма : Жизнь, как она есть / Life as We Know It (2010)
Дата кодирования : UTC 2013-07-23 15:39:19
Программа кодирования : mkvmerge v6.3.0 ('You can't stop me!') built on Jun 28 2013 20:09:41
Библиотека кодирования : libebml v1.3.0 + libmatroska v1.4.0

Видео
Идентификатор : 1
Формат : AVC
Формат/Информация : Advanced Video Codec
Профиль формата : High@L4.1
Параметр CABAC формата : Да
Параметр ReFrames формата : 5 кадров
Идентификатор кодека : V_MPEG4/ISO/AVC
Продолжительность : 1 ч. 54 м.
Битрейт : 8277 Кбит/сек
Ширина : 1920 пикселей
Высота : 800 пикселей
Соотношение сторон : 2,40:1
Режим частоты кадров : Постоянный
Частота кадров : 23,976 кадра/сек
Цветовое пространство : YUV
Субдискретизация насыщенности : 4:2:0
Битовая глубина : 8 бит
Тип развёртки : Прогрессивная
Бит/(Пиксели*Кадры) : 0.225
Размер потока : 6,47 Гбайт (83%)
Заголовок : Release by N1NT3NDO
Библиотека кодирования : x264 core 135 r2345 f0c1c53
Настройки программы : cabac=1 / ref=5 / deblock=1:-3:-3 / analyse=0x3:0x133 / me=umh / subme=11 / psy=1 / psy_rd=1.00:0.00 / mixed_ref=1 / me_range=32 / chroma_me=1 / trellis=2 / 8x8dct=1 / cqm=0 / deadzone=21,11 / fast_pskip=0 / chroma_qp_offset=-2 / threads=12 / lookahead_threads=1 / sliced_threads=0 / nr=0 / decimate=0 / interlaced=0 / bluray_compat=0 / constrained_intra=0 / bframes=6 / b_pyramid=2 / b_adapt=2 / b_bias=0 / direct=3 / weightb=1 / open_gop=0 / weightp=2 / keyint=240 / keyint_min=23 / scenecut=40 / intra_refresh=0 / rc=2pass / mbtree=0 / bitrate=8277 / ratetol=1.0 / qcomp=0.60 / qpmin=0 / qpmax=69 / qpstep=4 / cplxblur=20.0 / qblur=0.5 / ip_ratio=1.40 / pb_ratio=1.30 / aq=1:0.70
Язык : English
Default : Да
Forced : Нет

Аудио #1
Идентификатор : 2
Формат : AC-3
Формат/Информация : Audio Coding 3
Расширение режима : CM (complete main)
Параметр Endianness формата : Big
Идентификатор кодека : A_AC3
Продолжительность : 1 ч. 54 м.
Вид битрейта : Постоянный
Битрейт : 384 Кбит/сек
Каналы : 6 каналов
Расположение каналов : Front: L C R, Side: L R, LFE
Частота : 48,0 КГц
Битовая глубина : 16 бит
Метод сжатия : С потерями
Размер потока : 315 Мбайт (4%)
Заголовок : Rus
Язык : Russian
Default : Да
Forced : Нет

Аудио #2
Идентификатор : 3
Формат : AC-3
Формат/Информация : Audio Coding 3
Расширение режима : CM (complete main)
Параметр Endianness формата : Big
Идентификатор кодека : A_AC3
Продолжительность : 1 ч. 54 м.
Вид битрейта : Постоянный
Битрейт : 384 Кбит/сек
Каналы : 6 каналов
Расположение каналов : Front: L C R, Side: L R, LFE
Частота : 48,0 КГц
Битовая глубина : 16 бит
Метод сжатия : С потерями
Размер потока : 315 Мбайт (4%)
Заголовок : Ukr
Язык : Ukrainian
Default : Нет
Forced : Нет

Аудио #3
Идентификатор : 4
Формат : AC-3
Формат/Информация : Audio Coding 3
Расширение режима : CM (complete main)
Параметр Endianness формата : Big
Идентификатор кодека : A_AC3
Продолжительность : 1 ч. 54 м.
Вид битрейта : Постоянный
Битрейт : 640 Кбит/сек
Каналы : 6 каналов
Расположение каналов : Front: L C R, Side: L R, LFE
Частота : 48,0 КГц
Битовая глубина : 16 бит
Метод сжатия : С потерями
Размер потока : 525 Мбайт (7%)
Заголовок : Eng
Язык : English
Default : Нет
Forced : Нет

Текст #1
Идентификатор : 5
Формат : UTF-8
Идентификатор кодека : S_TEXT/UTF8
Идентификатор кодека/Информация : UTF-8 Plain Text
Заголовок : Rus (Forced)
Язык : Russian
Default : Нет
Forced : Нет

Текст #2
Идентификатор : 6
Формат : UTF-8
Идентификатор кодека : S_TEXT/UTF8
Идентификатор кодека/Информация : UTF-8 Plain Text
Заголовок : Rus
Язык : Russian
Default : Нет
Forced : Нет

Текст #3
Идентификатор : 7
Формат : UTF-8
Идентификатор кодека : S_TEXT/UTF8
Идентификатор кодека/Информация : UTF-8 Plain Text
Заголовок : Eng
Язык : English
Default : Нет
Forced : Нет

Меню
00:00:00.000 : :Chapter 01
00:09:55.469 : :Chapter 02
00:19:29.251 : :Chapter 03
00:29:43.448 : :Chapter 04
00:39:15.853 : :Chapter 05
00:49:32.386 : :Chapter 06
01:00:05.143 : :Chapter 07
01:10:26.639 : :Chapter 08
01:21:04.276 : :Chapter 09
01:29:20.063 : :Chapter 10
01:39:57.825 : :Chapter 11
01:50:08.184 : :Chapter 12
01:54:38.872 : :Chapter 13
загрузка...
Правила, инструкции, FAQ!!!
Торрент  Добавлен [17 сен 2013, 09:29] Скачать торрент
Скачать торрент
[ Размер 19.93 КБ / Просмотров 5 ]

Статус  
 
Размер  7.75 ГБ
Приватный: Нет (DHT включён)
.torrent скачан  0
Как залить торрент? | Как скачать Torrent? | Как смотреть и слушать онлайн?  


     Отправить личное сообщение
   
Страница 1 из 1
Показать сообщения за:  Поле сортировки  
Начать новую тему Ответить на тему

   Похожие торренты   Автор   Ответы   Просмотры   Последнее сообщение 
В этой теме нет новых непрочитанных сообщений. Скачать торрент Незаконченная жизнь / An Unfinished Life (2005) BDRip 1080p

в форуме 720p | 1080p, Размер: 7.75 ГБ, Здоровье: 100%

Anonymous

0
1|0

33
2

14 янв 2014, 13:43

Anonymous Перейти к последнему сообщению

В этой теме нет новых непрочитанных сообщений. Скачать торрент Проверен Жизнь этого парня / This Boy's Life (1993) BDRip 1080p

в форуме 720p | 1080p, Размер: 7.75 ГБ, Здоровье: 10%

Гость

0
14|137

44
6

28 мар 2015, 14:47

Гость Перейти к последнему сообщению

В этой теме нет новых непрочитанных сообщений. Скачать торрент Жизнь короля / Life of a King (2013) BDRip 1080p | L1

в форуме 720p | 1080p, Размер: 8.08 ГБ, Здоровье: 0%

Anonymous

0
0|0

35
0

09 мар 2014, 08:54

Anonymous Перейти к последнему сообщению

В этой теме нет новых непрочитанных сообщений. Скачать торрент Проверен Водная жизнь / The Life Aquatic with Steve Zissou (2004) BDRip 1080p | P, P2

в форуме 720p | 1080p, Размер: 14.62 ГБ, Здоровье: 100%

Anonymous

0
2|0

29
68

12 июл 2014, 21:34

Anonymous Перейти к последнему сообщению

В этой теме нет новых непрочитанных сообщений. Скачать торрент Незаконченная жизнь / An Unfinished Life (2005) Blu-Ray Remux 1080p

в форуме BD-Remux, Размер: 17.48 ГБ, Здоровье: 100%

Anonymous

0
3|0

73
2

04 янв 2014, 17:06

Anonymous Перейти к последнему сообщению



Сейчас этот форум просматривают: нет зарегистрированных пользователей и гости: 3


Вы не можете начинать темы
Вы не можете отвечать на сообщения
Вы не можете редактировать свои сообщения
Вы не можете удалять свои сообщения
Вы не можете добавлять вложения

Перейти:  

!ВНИМАНИЕ!
 Ресурс не предоставляет электронные версии произведений, а занимается лишь коллекционированием и каталогизацией ссылок, присылаемых и публикуемых на форуме нашими читателями. Если вы являетесь правообладателем какого-либо представленного материала и не желаете чтобы ссылка на него находилась в нашем каталоге, свяжитесь с нами и мы незамедлительно удалим её. Файлы для обмена на трекере предоставлены пользователями сайта, и администрация не несёт ответственности за их содержание. Просьба не заливать файлы, защищенные авторскими правами, а также файлы нелегального содержания!