На всех торрентах на трекере установлена скидка на скачивание в размере 100 процентов(а).
 Возможность скачивания торрента НЕ зависит от ограничений при низком ратио, низком аплоаде, требуемом ратио или требуемом аплоаде.


Начать новую тему Ответить на тему
Статистика раздачи
Размер: 1.45 ГБ | Добавлен: 17 сен 2013, 07:36 | Скачали: 0
Сидеров: 0  [0 байт/сек]    Личеров: 0  [0 байт/сек]
Пред. тема | След. тема 

Автор
Сообщение

СообщениеДобавлено: 17 сен 2013, 07:36 

Название: После нашей эры
Оригинальное название: After Earth
Год выхода: 2013
Жанр: фантастика, приключения, боевик
Режиссер: М. Найт Шьямалан

В ролях: Уилл Смит, Джейден Смит, Зои Кравиц, Изабель Фурман, Кристофер Хивджу, Софи Оконедо, Дэвид Денман, Гленн Моршауэр, Линкольн Льюис

О фильме: События разворачиваются через тысячу лет после катастрофы, вынудившей человечество покинуть Землю. Новым домом становится планета под названием Нова Прайм. Легендарный генерал Сайфер Рейдж возвращается с очередного боевого задания в семью, которая раньше обходилась без его родительского внимания, чтобы стать отцом своему 13-летнему сыну Китаю. Во время астероидной бури летательный аппарат с папой и сыном на борту терпит крушение, падая на незнакомую и опасную Землю. И пока Рейдж-старший на последнем дыхании лежит среди обломков своего корабля, сын должен пересечь враждебный ландшафт, чтобы запустить их спасательный маячок. Ни о чем большем юноша в своей жизни не мечтал: быть солдатом, как отец, — его заветное желание. Сегодня у него есть шанс проявить себя.



Выпущено: США / Columbia Pictures, Overbrook Entertainment, Blinding Edge Pictures
Продолжительность: 01:40:02
Озвучивание: Дублированное [iTunes Russia]


Формат: MKV
Качество: WEB-DLRip-AVC [Рип с WEB-DL 720p]
Видео: 1692 kb/s, 1024x424
Аудио: AC3, 384 kb/s (6 ch)
Дополнительно: Сохранены оригинальные чаптеры.

Семпл





Format : Matroska
Format version : Version 4 / Version 2
File size : 1.45 GiB
Duration : 1h 40mn
Overall bit rate : 2 077 Kbps
Encoded date : UTC 2013-09-17 03:40:11
Writing application : mkvmerge v6.1.0 ('Old Devil') built on Mar 4 2013 09:10:42
Writing library : libebml v1.3.0 + libmatroska v1.4.0

Video
ID : 1
Format : AVC
Format/Info : Advanced Video Codec
Format profile : High@L4.1
Format settings, CABAC : Yes
Format settings, ReFrames : 9 frames
Codec ID : V_MPEG4/ISO/AVC
Duration : 1h 40mn
Bit rate : 1 692 Kbps
Width : 1 024 pixels
Height : 424 pixels
Display aspect ratio : 2.40:1
Frame rate : 23.976 fps
Color space : YUV
Chroma subsampling : 4:2:0
Bit depth : 8 bits
Scan type : Progressive
Bits/(Pixel*Frame) : 0.163
Stream size : 1.15 GiB (80%)
Writing library : x264 core 130 r2273 b3065e6
Encoding settings : cabac=1 / ref=9 / deblock=1:-3:-3 / analyse=0x3:0x133 / me=umh / subme=11 / psy=1 / psy_rd=1.00:0.20 / mixed_ref=1 / me_range=48 / chroma_me=1 / trellis=2 / 8x8dct=1 / cqm=0 / deadzone=21,11 / fast_pskip=0 / chroma_qp_offset=-3 / threads=12 / lookahead_threads=2 / sliced_threads=0 / nr=0 / decimate=0 / interlaced=0 / bluray_compat=0 / constrained_intra=0 / bframes=10 / b_pyramid=2 / b_adapt=2 / b_bias=0 / direct=3 / weightb=1 / open_gop=0 / weightp=2 / keyint=250 / keyint_min=23 / scenecut=40 / intra_refresh=0 / rc=2pass / mbtree=0 / bitrate=1692 / ratetol=1.0 / qcomp=0.60 / qpmin=0 / qpmax=69 / qpstep=4 / cplxblur=20.0 / qblur=0.5 / ip_ratio=1.40 / pb_ratio=1.30 / aq=1:1.00
Default : Yes
Forced : No

Audio
ID : 2
Format : AC-3
Format/Info : Audio Coding 3
Mode extension : CM (complete main)
Format settings, Endianness : Big
Codec ID : A_AC3
Duration : 1h 40mn
Bit rate mode : Constant
Bit rate : 384 Kbps
Channel(s) : 6 channels
Channel positions : Front: L C R, Side: L R, LFE
Sampling rate : 48.0 KHz
Bit depth : 16 bits
Compression mode : Lossy
Stream size : 275 MiB (18%)
Default : Yes
Forced : No

Menu
00:00:00.000 : en:00:00:00.000
00:08:51.000 : en:00:08:51.000
00:15:34.000 : en:00:15:34.000
00:21:32.000 : en:00:21:32.000
00:30:47.000 : en:00:30:47.000
00:36:42.000 : en:00:36:42.000
00:41:10.000 : en:00:41:10.000
00:47:02.000 : en:00:47:02.000
00:52:32.000 : en:00:52:32.000
00:59:44.000 : en:00:59:44.000
01:05:20.000 : en:01:05:20.000
01:11:04.000 : en:01:11:04.000
01:15:41.000 : en:01:15:41.000
01:20:11.000 : en:01:20:11.000
01:24:32.000 : en:01:24:32.000
01:29:51.000 : en:01:29:51.000


Рип: 03nazar03
загрузка...
Правила, инструкции, FAQ!!!
Торрент  Добавлен [17 сен 2013, 07:36] Скачать торрент
Скачать торрент
[ Размер 14.99 КБ / Просмотров 9 ]

Статус  
 
Размер  1.45 ГБ
Приватный: Нет (DHT включён)
.torrent скачан  0
Как залить торрент? | Как скачать Torrent? | Как смотреть и слушать онлайн?  


     Отправить личное сообщение
   
Страница 1 из 1
Показать сообщения за:  Поле сортировки  
Начать новую тему Ответить на тему

   Похожие торренты   Автор   Ответы   Просмотры   Последнее сообщение 
В этой теме нет новых непрочитанных сообщений. Скачать торрент Ромео и Джульетта / Romeo and Juliet (2013) WEB-DLRip | D | iTunes Russia

в форуме Драмы, Мелодрамы, Размер: 1.45 ГБ, Здоровье: 0%

Anonymous

0
0|0

49
0

14 дек 2013, 09:47

Anonymous Перейти к последнему сообщению

В этой теме нет новых непрочитанных сообщений. Скачать торрент Проверен Жестокий ринг / Victor Young Perez (2013) WEB-DLRip | iTunes Russia

в форуме Исторические, Размер: 1.45 ГБ, Здоровье: 100%

Anonymous

0
75|7

199
133

23 июн 2014, 22:30

Anonymous Перейти к последнему сообщению

В этой теме нет новых непрочитанных сообщений. Скачать торрент Проверен Cнайпер: воин призрак / Sniper: Ghost Shooter (2016) WEB-DLRip-AVC | iTunes Russia

в форуме Боевики, Размер: 1.46 ГБ, Здоровье: 100%

Гость

0
96|7

107
15

02 авг 2016, 23:11

Гость Перейти к последнему сообщению

В этой теме нет новых непрочитанных сообщений. Скачать торрент Проверен Клуб Винкс: Тайна морской бездны / Winx Club: Il mistero degli abissi (2014) WEB-DLRip | iTunes Russia

в форуме Зарубежные мультфильмы, Размер: 1.18 ГБ, Здоровье: 100%

Anonymous

0
131|5

151
317

09 ноя 2014, 15:55

Anonymous Перейти к последнему сообщению

В этой теме нет новых непрочитанных сообщений. Скачать торрент Риддик / Riddick (2013) BDRip 720p | iTunes Russia

в форуме 720p | 1080p, Размер: 3.75 ГБ, Здоровье: 0%

Anonymous

0
0|0

38
0

23 дек 2013, 18:02

Anonymous Перейти к последнему сообщению



Сейчас этот форум просматривают: нет зарегистрированных пользователей и гости: 1


Вы не можете начинать темы
Вы не можете отвечать на сообщения
Вы не можете редактировать свои сообщения
Вы не можете удалять свои сообщения
Вы не можете добавлять вложения

Перейти:  

!ВНИМАНИЕ!
 Ресурс не предоставляет электронные версии произведений, а занимается лишь коллекционированием и каталогизацией ссылок, присылаемых и публикуемых на форуме нашими читателями. Если вы являетесь правообладателем какого-либо представленного материала и не желаете чтобы ссылка на него находилась в нашем каталоге, свяжитесь с нами и мы незамедлительно удалим её. Файлы для обмена на трекере предоставлены пользователями сайта, и администрация не несёт ответственности за их содержание. Просьба не заливать файлы, защищенные авторскими правами, а также файлы нелегального содержания!