На всех торрентах на трекере установлена скидка на скачивание в размере 100 процентов(а).
 Возможность скачивания торрента НЕ зависит от ограничений при низком ратио, низком аплоаде, требуемом ратио или требуемом аплоаде.


Начать новую тему Ответить на тему
Статистика раздачи
Размер: 7.93 ГБ | Добавлен: 15 сен 2013, 21:50 | Скачали: 0
Сидеров: 0  [0 байт/сек]    Личеров: 0  [0 байт/сек]
Пред. тема | След. тема 

Автор
Сообщение

СообщениеДобавлено: 15 сен 2013, 21:50 

Сердцеед

L'arnacoeur

«Перед ним пока не устояла ни одна женщина...»
Год выпуска: 2010
Страна: Франция , Монако
Жанр: мелодрама, комедия
Продолжительность: 01:44:50
Перевод: Профессиональный (дублированный)
Субтитры: English (srt)

Режиссер: Паскаль Шомель


В ролях: Ромен Дюрис / Romain Duris (Alex, € 1 200 000 ), Ванесса Паради / Vanessa Paradis (Juliette), Жюли Ферье / Julie Ferrier (Melanie), Франсуа Дамиенс / François Damiens (Marc), Элена Ногуэрра / Helena Noguerra (в титрах: Helena Noguerra) (Sophie), Эндрю Линкольн / Andrew Lincoln (Jonathan), Жак Франц / Jacques Frantz (Van der Beck), Амандин Девасме / Amandine Dewasmes (Florence), Жан-Ив Лафесс / Jean-Yves Lafesse (Dutour), Жан-Мари Пэрис / Jean-Marie Paris (Goran)

Описание: Прожженный дамский угодник Алекс затевает на пару с сестрой занятный бизнес: он разбивает нежелательные для клиентов романтические союзы. Дело идет как по маслу, пока Алексу не попадается по-настоящему сложный заказ — ему поручено разлучить поистине идеальную пару.



Рейтинг MPAA: Лицам до 17 лет обязательно присутствие взрослого
Рейтинг ВКИП: для детей старше 16 лет



Качество: BDRip1080p
Формат: MKV
Видео кодек: H.264 (AVC)
Аудио кодеk: AC3
Видео: 1920x810 (2.40:1), 23.976 fps, AVC, 9940 Kbps
Аудио:
Аудио #1: AC3, 448 Kbps, 48.0 KHz, 6 ch RUS Dub
Аудио #2: AC3, 448 Kbps, 48.0 KHz, 6 ch FRE



x264 [info]: frame I:1085 Avg QP:14.84 size:207685
x264 [info]: frame P:34186 Avg QP:17.65 size: 95581
x264 [info]: frame B:115545 Avg QP:19.97 size: 37343
*******************************************************
General
Unique ID : 220471339926416086451915335455417368155 (0xA5DD3C4CA25FA556A32548857D64FE5B)
Complete name : L'arnacoeur.2010.1080p.Bluray.F-HD.mkv
Format : Matroska
Format version : Version 4 / Version 2
File size : 7.93 GiB
Duration : 1h 44mn
Overall bit rate : 10.8 Mbps
Encoded date : UTC 2013-09-15 17:24:50
Writing application : mkvmerge v6.2.0 ('Promised Land') built on Apr 28 2013 12:22:01
Writing library : libebml v1.3.0 + libmatroska v1.4.0

Video
ID : 1
Format : AVC
Format/Info : Advanced Video Codec
Format profile : High@L4.1
Format settings, CABAC : Yes
Format settings, ReFrames : 5 frames
Codec ID : V_MPEG4/ISO/AVC
Duration : 1h 44mn
Bit rate : 9 940 Kbps
Width : 1 920 pixels
Height : 810 pixels
Display aspect ratio : 2.40:1
Frame rate mode : Constant
Frame rate : 23.976 fps
Color space : YUV
Chroma subsampling : 4:2:0
Bit depth : 8 bits
Scan type : Progressive
Bits/(Pixel*Frame) : 0.267
Stream size : 7.12 GiB (90%)
Writing library : x264 core 138 r2359+704+48 3f879a0 tMod [8-bit@all X86_64]
Encoding settings : cabac=1 / ref=5 / deblock=1:-3:-3 / analyse=0x3:0x113 / me=umh / subme=11 / psy=1 / fade_compensate=0.00 / psy_rd=1.00:0.02 / mixed_ref=1 / me_range=32 / chroma_me=1 / trellis=2 / 8x8dct=1 / cqm=0 / deadzone=21,11 / fast_pskip=0 / chroma_qp_offset=-3 / threads=6 / lookahead_threads=1 / sliced_threads=0 / nr=0 / decimate=1 / interlaced=0 / bluray_compat=0 / constrained_intra=0 / fgo=0 / bframes=9 / b_pyramid=2 / b_adapt=2 / b_bias=0 / direct=3 / weightb=1 / open_gop=0 / weightp=2 / keyint=250 / keyint_min=23 / scenecut=40 / intra_refresh=0 / rc_lookahead=120 / rc=2pass / mbtree=0 / bitrate=9940 / ratetol=1.0 / qcomp=0.75 / qpmin=0:0:0 / qpmax=69:69:69 / qpstep=4 / cplxblur=20.0 / qblur=0.5 / vbv_maxrate=50000 / vbv_bufsize=62500 / nal_hrd=none / ip_ratio=1.40 / pb_ratio=1.30 / aq=4:0.85 / aq-sensitivity=15.00 / aq-factor=1.00:1.00:1.00 / aq2=0 / aq3=0
Language : English
Default : Yes
Forced : No
Matrix coefficients : BT.709

Audio #1
ID : 2
Format : AC-3
Format/Info : Audio Coding 3
Mode extension : CM (complete main)
Format settings, Endianness : Big
Codec ID : A_AC3
Duration : 1h 44mn
Bit rate mode : Constant
Bit rate : 448 Kbps
Channel(s) : 6 channels
Channel positions : Front: L C R, Side: L R, LFE
Sampling rate : 48.0 KHz
Bit depth : 16 bits
Compression mode : Lossy
Stream size : 336 MiB (4%)
Language : Russian
Default : Yes
Forced : No

Audio #2
ID : 3
Format : AC-3
Format/Info : Audio Coding 3
Mode extension : CM (complete main)
Format settings, Endianness : Big
Codec ID : A_AC3
Duration : 1h 44mn
Bit rate mode : Constant
Bit rate : 448 Kbps
Channel(s) : 6 channels
Channel positions : Front: L C R, Side: L R, LFE
Sampling rate : 48.0 KHz
Bit depth : 16 bits
Compression mode : Lossy
Stream size : 336 MiB (4%)
Language : French
Default : No
Forced : No

Text
ID : 4
Format : UTF-8
Codec ID : S_TEXT/UTF8
Codec ID/Info : UTF-8 Plain Text
Language : English
Default : No
Forced : No

Menu
00:00:00.000 : en:Chapter 1
00:04:00.782 : en:Chapter 2
00:09:23.061 : en:Chapter 3
00:14:49.888 : en:Chapter 4
00:20:16.590 : en:Chapter 5
00:28:00.302 : en:Chapter 6
00:35:21.119 : en:Chapter 7
00:44:17.071 : en:Chapter 8
00:50:56.762 : en:Chapter 9
00:57:53.261 : en:Chapter 10
01:05:58.787 : en:Chapter 11
01:12:39.188 : en:Chapter 12
01:18:07.349 : en:Chapter 13
01:23:53.987 : en:Chapter 14
01:28:59.500 : en:Chapter 15
01:35:45.238 : en:Chapter 16





Релиз от:
загрузка...
Правила, инструкции, FAQ!!!
Торрент  Добавлен [15 сен 2013, 21:50] Скачать торрент
Скачать торрент
[ Размер 40.11 КБ / Просмотров 6 ]

Статус  
 
Размер  7.93 ГБ
Приватный: Нет (DHT включён)
.torrent скачан  0
Как залить торрент? | Как скачать Torrent? | Как смотреть и слушать онлайн?  


     Отправить личное сообщение
   
Страница 1 из 1
Показать сообщения за:  Поле сортировки  
Начать новую тему Ответить на тему

   Похожие торренты   Автор   Ответы   Просмотры   Последнее сообщение 
В этой теме нет новых непрочитанных сообщений. Скачать торрент Сердцеед / L'arnacoeur (2010) BDRip-AVC

в форуме Драмы, Мелодрамы, Размер: 1.45 ГБ, Здоровье: 0%

Anonymous

0
0|0

36
0

11 мар 2014, 22:11

Anonymous Перейти к последнему сообщению

В этой теме нет новых непрочитанных сообщений. Скачать торрент Кандагар (2010) BDRip 1080p

в форуме 720p | 1080p, Размер: 4.36 ГБ, Здоровье: 0%

Anonymous

0
0|0

23
0

17 янв 2014, 15:40

Anonymous Перейти к последнему сообщению

В этой теме нет новых непрочитанных сообщений. Скачать торрент О чём говорят мужчины (2010) BDRip 1080p

в форуме 720p | 1080p, Размер: 4.37 ГБ, Здоровье: 0%

Anonymous

0
0|0

101
0

06 янв 2014, 23:14

Anonymous Перейти к последнему сообщению

В этой теме нет новых непрочитанных сообщений. Скачать торрент Проверен 14 клинков / Gam yee wai / 14 Blades (2010) BDRip 1080p | P1

в форуме 720p | 1080p, Размер: 11.82 ГБ, Здоровье: 100%

Гость

0
18|5

116
7

08 апр 2016, 19:29

Гость Перейти к последнему сообщению

В этой теме нет новых непрочитанных сообщений. Скачать торрент Проверен Центурион / Centurion (2010) BDRip 1080p | D, P, A

в форуме 720p | 1080p, Размер: 15.73 ГБ, Здоровье: 100%

Anonymous

0
22|18

46
74

04 май 2015, 20:17

Anonymous Перейти к последнему сообщению



Сейчас этот форум просматривают: нет зарегистрированных пользователей и гости: 3


Вы не можете начинать темы
Вы не можете отвечать на сообщения
Вы не можете редактировать свои сообщения
Вы не можете удалять свои сообщения
Вы не можете добавлять вложения

Перейти:  

!ВНИМАНИЕ!
 Ресурс не предоставляет электронные версии произведений, а занимается лишь коллекционированием и каталогизацией ссылок, присылаемых и публикуемых на форуме нашими читателями. Если вы являетесь правообладателем какого-либо представленного материала и не желаете чтобы ссылка на него находилась в нашем каталоге, свяжитесь с нами и мы незамедлительно удалим её. Файлы для обмена на трекере предоставлены пользователями сайта, и администрация не несёт ответственности за их содержание. Просьба не заливать файлы, защищенные авторскими правами, а также файлы нелегального содержания!