На всех торрентах на трекере установлена скидка на скачивание в размере 100 процентов(а).
 Возможность скачивания торрента НЕ зависит от ограничений при низком ратио, низком аплоаде, требуемом ратио или требуемом аплоаде.


Начать новую тему Ответить на тему
Статистика раздачи
Размер: 5.76 ГБ | Добавлен: 25 ноя 2012, 21:38 | Скачали: 1
Сидеров: 0  [0 байт/сек]    Личеров: 0  [0 байт/сек]
Пред. тема | След. тема 

Автор
Сообщение

СообщениеДобавлено: 25 ноя 2012, 21:33 

Информация о фильме
Название: Вокруг света за 80 дней
Оригинальное название: Around the World in 80 Days
Год выхода: 2004
Жанр: Боевик, комедия, мелодрама, приключения, семейный, вестерн
Режиссер: Фрэнк Корачи
В ролях: Джеки Чан, Стив Кугэн, Роберт Файф, Джим Броудбент, Арнольд Шварценеггер, Иэн МакНис, Дэвид Райалл, Роджер Хэммонд, Адам Годли, Карен Мок, Ховард Купер

О фильме:
Эксцентричный лондонский изобретатель Филеас Фогг раскрыл тайны полетов, электричества и многие другие, но общество не принимает его, считая сумасшедшим. Фоггу очень хочется, чтобы к нему относились серьезно, и он заключает необычное пари с лордом Келвином, главой Королевской академии наук: он берется совершить путешествие вокруг земного шара не более чем за 80 дней. Вместе со своим лакеем Паспарту и жаждущей острых ощущений французской художницей Моник Фогг пускается в безумную, захватывающую кругосветную гонку по суше, морю и воздуху. Во время головокружительного путешествия наши герои попадают в самые экзотические уголки планеты. В пути их ждут многочисленные приключения и препятствия…




Страна: США, Германия, Великобритания, Ирландия
Выпущено: 80 Days Productions Ltd, Walt Disney Pictures
Продолжительность: 02:00:06
Перевод: Профессиональный (Дублированный)

Файл
Кодек: x264
Формат: MKV
Качество: BDRip 1080p
Видео: AVC (High@L4.1) 1920x816 (2.35:1), 23.976 fps, 6426 kbps, 0,171 Bits/Pixel
Аудио: Dolby Digital (AC-3) 5.1 ch, 448 kbps
Субтитры: Русские, Английские
Размер: (1/4 BD-R)
The encoding settings: Hi-Fi

General
Unique ID : 193621247267961111745248840286985232467 (0x91AA18863CB94EFF9E7D6F6EF1F3A053)
Format : Matroska
Format version : Version 2
File size : 5.76 GiB
Duration : 2h 0mn
Overall bit rate : 6 870 Kbps
Movie name : Вокруг света за 80 дней (2004) BDRip (1080p)
Encoded date : UTC 2012-11-24 11:52:44
Writing application : mkvmerge v5.8.0 ('No Sleep / Pillow') built on Sep 2 2012 15:37:04
Writing library : libebml v1.2.3 + libmatroska v1.3.0

Video
ID : 1
Format : AVC
Format/Info : Advanced Video Codec
Format profile : High@L4.1
Format settings, CABAC : Yes
Format settings, ReFrames : 5 frames
Codec ID : V_MPEG4/ISO/AVC
Duration : 2h 0mn
Bit rate : 6 426 Kbps
Width : 1 920 pixels
Height : 816 pixels
Display aspect ratio : 2.35:1
Frame rate mode : Constant
Frame rate : 23.976 fps
Color space : YUV
Chroma subsampling : 4:2:0
Bit depth : 8 bits
Scan type : Progressive
Bits/(Pixel*Frame) : 0.171
Stream size : 5.27 GiB (91%)
Title : Release by Alex260680
Writing library : x264 core 129 r2230 1cffe9f
Encoding settings : cabac=1 / ref=5 / deblock=1:0:0 / analyse=0x3:0x133 / me=umh / subme=10 / psy=1 / psy_rd=1.00:0.10 / mixed_ref=1 / me_range=32 / chroma_me=1 / trellis=2 / 8x8dct=1 / cqm=0 / deadzone=21,11 / fast_pskip=0 / chroma_qp_offset=-3 / threads=12 / lookahead_threads=2 / sliced_threads=0 / nr=0 / decimate=0 / interlaced=0 / bluray_compat=0 / constrained_intra=0 / bframes=5 / b_pyramid=2 / b_adapt=2 / b_bias=0 / direct=3 / weightb=1 / open_gop=0 / weightp=2 / keyint=240 / keyint_min=23 / scenecut=40 / intra_refresh=0 / rc=2pass / mbtree=0 / bitrate=6426 / ratetol=1.0 / qcomp=0.60 / qpmin=0 / qpmax=69 / qpstep=4 / cplxblur=20.0 / qblur=0.5 / ip_ratio=1.40 / pb_ratio=1.30 / aq=1:0.80
Language : English
Default : Yes
Forced : No

Audio
ID : 2
Format : AC-3
Format/Info : Audio Coding 3
Mode extension : CM (complete main)
Format settings, Endianness : Big
Codec ID : A_AC3
Duration : 2h 0mn
Bit rate mode : Constant
Bit rate : 448 Kbps
Channel(s) : 6 channels
Channel positions : Front: L C R, Side: L R, LFE
Sampling rate : 48.0 KHz
Bit depth : 16 bits
Compression mode : Lossy
Stream size : 385 MiB (7%)
Title : DUB
Language : Russian
Default : Yes
Forced : No

Text #1
ID : 3
Format : UTF-8
Codec ID : S_TEXT/UTF8
Codec ID/Info : UTF-8 Plain Text
Title : R5
Language : Russian
Default : No
Forced : No

Text #2
ID : 4
Format : UTF-8
Codec ID : S_TEXT/UTF8
Codec ID/Info : UTF-8 Plain Text
Language : English
Default : No
Forced : No

Menu
00:00:00.000 : en:Chapter1
00:07:23.109 : en:Chapter2
00:12:52.646 : en:Chapter3
00:20:37.653 : en:Chapter4
00:23:14.893 : en:Chapter5
00:30:02.217 : en:Chapter6
00:36:16.172 : en:Chapter7
00:42:51.986 : en:Chapter8
00:51:06.229 : en:Chapter9
01:00:22.619 : en:Chapter10
01:04:06.551 : en:Chapter11
01:09:08.602 : en:Chapter12
01:18:43.719 : en:Chapter13
01:19:55.582 : en:Chapter14
01:25:44.139 : en:Chapter15
01:28:54.996 : en:Chapter16
01:37:17.497 : en:Chapter17
01:42:12.126 : en:Chapter18
01:44:32.099 : en:Chapter19
01:48:52.525 : en:Chapter20

загрузка...
Правила, инструкции, FAQ!!!
Торрент  Добавлен [25 ноя 2012, 21:38] Скачать торрент
Скачать торрент
[ Размер 15.02 КБ / Просмотров 17 ]

Статус
Проверен 
 
Размер  5.76 ГБ
Приватный: Нет (DHT включён)
.torrent скачан  1
Как залить торрент? | Как скачать Torrent? | Как смотреть и слушать онлайн?  


     Отправить личное сообщение
   
Страница 1 из 1
Показать сообщения за:  Поле сортировки  
Начать новую тему Ответить на тему

   Похожие торренты   Автор   Ответы   Просмотры   Последнее сообщение 
В этой теме нет новых непрочитанных сообщений. Скачать торрент Проверен Том и Джерри. Вокруг Света / Tom and Jerry. Around the World (2012) DVDRip

в форуме Видео для смартфонов и КПК, Размер: 143.48 МБ, Здоровье: 33%

Anonymous

0
1|3

137
1

25 окт 2014, 23:30

Anonymous Перейти к последнему сообщению

В этой теме нет новых непрочитанных сообщений. Скачать торрент Проверен Avantasia - The Flying Opera: Around the World in Twenty Days [2011, Rock, Hard Rock, Heavy Metal, Symphonic Metal, BDRip 1080p]

в форуме Концерты (HD-Video), Размер: 12.96 ГБ, Здоровье: 100%

Anonymous

0
3|1

10
0

23 окт 2016, 19:44

Anonymous Перейти к последнему сообщению

В этой теме нет новых непрочитанных сообщений. Скачать торрент Конец света / End of Days (Питер Хайамс / Peter Hyams) [1999 г., ужасы, боевик, триллер, BDRip] Dub

в форуме Ужасы, Размер: 1.46 ГБ, Здоровье: 100%

Anonymous

0
2|0

41
2

02 янв 2014, 00:10

Anonymous Перейти к последнему сообщению

В этой теме нет новых непрочитанных сообщений. Скачать торрент Проверен Вокруг света №7 (июль) (2015) PDF

в форуме Научно-популярные журналы, Размер: 91.01 МБ, Здоровье: 100%

Anonymous

0
29|3

269
26

19 ноя 2015, 00:15

Anonymous Перейти к последнему сообщению

В этой теме нет новых непрочитанных сообщений. Скачать торрент Проверен Вокруг света №10 (октябрь) (2015) PDF

в форуме Научно-популярные журналы, Размер: 150.79 МБ, Здоровье: 100%

Anonymous

0
37|3

297
25

18 ноя 2015, 23:41

Anonymous Перейти к последнему сообщению



Сейчас этот форум просматривают: нет зарегистрированных пользователей и гости: 1


Вы не можете начинать темы
Вы не можете отвечать на сообщения
Вы не можете редактировать свои сообщения
Вы не можете удалять свои сообщения
Вы не можете добавлять вложения

Перейти:  

!ВНИМАНИЕ!
 Ресурс не предоставляет электронные версии произведений, а занимается лишь коллекционированием и каталогизацией ссылок, присылаемых и публикуемых на форуме нашими читателями. Если вы являетесь правообладателем какого-либо представленного материала и не желаете чтобы ссылка на него находилась в нашем каталоге, свяжитесь с нами и мы незамедлительно удалим её. Файлы для обмена на трекере предоставлены пользователями сайта, и администрация не несёт ответственности за их содержание. Просьба не заливать файлы, защищенные авторскими правами, а также файлы нелегального содержания!
cron