На всех торрентах на трекере установлена скидка на скачивание в размере 100 процентов(а).
 Возможность скачивания торрента НЕ зависит от ограничений при низком ратио, низком аплоаде, требуемом ратио или требуемом аплоаде.


Начать новую тему Ответить на тему
Статистика раздачи
Размер: 2.1 ГБ | Добавлен: 14 сен 2013, 14:35 | Скачали: 0
Сидеров: 0  [0 байт/сек]    Личеров: 0  [0 байт/сек]
Пред. тема | След. тема 

Автор
Сообщение

СообщениеДобавлено: 14 сен 2013, 14:35 

Страна: Китай, Гаити, Гонконг
Жанр: боевик, драма
Год выпуска: 2012
Продолжительность: 01:52:46
Перевод: Любительский (двухголосый)[GREEN TEA: Виктор Ерёменко и Ольга Гринтиева] + Оригинальный
Субтитры: русские (Forced), русские, английские.


Режиссер: Вэй Кеунг Лау / Wai Keung Lau


В ролях: Хуан Сяомин (Wolf), Этан Жуань (Leng), Юйчунь Ли (Musen), Шон Юе (Haidu), Пурба Ргиал (Chentai), Тянь Гао (Hutu), И Вэй Чжоу (Buka), Цзин Божань (Shisan), Пенг Гуо (Su), Юй Ван (Gong-E), Вивьен Ли (Bai Lan), Чин Ши-че (Wan Jiang)


Описание: Это оружие известно, как самое смертоносное из всех когда-либо изобретенных, простое упоминание его названия вселяет ужас в сердца людей. Запущенное с расстояния оно попадает точно в цель и обезглавливает ее своими острыми лезвиями. Таким оружием пользуется отряд элитных бойцов под названием «Гильотина», и никакие мольбы о пощаде не спасут их врагов от неминуемой участи.




MPAA: R - Лицам до 17 лет обязательно присутствие взрослого


Семпл


Качество: BDRip
Контейнер: MKV

Видео: AVC, 1024x436 (2.35:1), 2021 kbps, 23.976 fps, 0.189 bpp
Аудио №1: русский / MP3 / 2.0 / 48 kHz / 192 kbps
Аудио №2: китайский / AC3 / 5.1 / 48 kHz / 448 kbps
Навигация по главам: есть


Format : Matroska
Format version : Version 2
File size : 2.10 GiB
Duration : 1h 52mn
Overall bit rate : 2 662 Kbps
Movie name : = Гильотины / The Guillotines BDRip by SC Kosmos =
Encoded date : UTC 2013-09-10 23:49:36
Writing application : mkvmerge v5.3.0 ('I could have danced') built on Feb 9 2012 10:38:07
Writing library : libebml v1.2.3 + libmatroska v1.3.0

Video
ID : 1
Format : AVC
Format/Info : Advanced Video Codec
Format profile : High@L4.1
Format settings, CABAC : Yes
Format settings, ReFrames : 10 frames
Codec ID : V_MPEG4/ISO/AVC
Duration : 1h 52mn
Bit rate : 2 021 Kbps
Width : 1 024 pixels
Height : 436 pixels
Display aspect ratio : 2.35:1
Frame rate : 23.976 fps
Color space : YUV
Chroma subsampling : 4:2:0
Bit depth : 8 bits
Scan type : Progressive
Bits/(Pixel*Frame) : 0.189
Stream size : 1.55 GiB (74%)
Title : Гильотины / The Guillotines BDRip by SC Kosmos
Writing library : x264 core 138 r2358 9e941d1
Encoding settings : cabac=1 / ref=10 / deblock=1:-2:-2 / analyse=0x3:0x113 / me=umh / subme=11 / psy=1 / psy_rd=1.00:0.00 / mixed_ref=1 / me_range=32 / chroma_me=1 / trellis=2 / 8x8dct=1 / cqm=0 / deadzone=21,11 / fast_pskip=0 / chroma_qp_offset=-2 / threads=12 / lookahead_threads=1 / sliced_threads=0 / nr=0 / decimate=1 / interlaced=0 / bluray_compat=0 / constrained_intra=0 / bframes=12 / b_pyramid=2 / b_adapt=1 / b_bias=0 / direct=1 / weightb=1 / open_gop=0 / weightp=2 / keyint=240 / keyint_min=23 / scenecut=40 / intra_refresh=0 / rc_lookahead=40 / rc=2pass / mbtree=1 / bitrate=2021 / ratetol=1.0 / qcomp=0.60 / qpmin=0 / qpmax=69 / qpstep=4 / cplxblur=20.0 / qblur=0.5 / vbv_maxrate=50000 / vbv_bufsize=50000 / nal_hrd=none / ip_ratio=1.40 / aq=1:1.00 / zones=156690,162218,b=0.27
Language : Chinese
Default : Yes
Forced : No

Audio #1
ID : 2
Format : MPEG Audio
Format version : Version 1
Format profile : Layer 3
Mode : Joint stereo
Codec ID : A_MPEG/L3
Codec ID/Hint : MP3
Duration : 1h 52mn
Bit rate mode : Constant
Bit rate : 192 Kbps
Channel(s) : 2 channels
Sampling rate : 48.0 KHz
Compression mode : Lossy
Stream size : 155 MiB (7%)
Title : DVO [GREEN TEA: Виктор Ерёменко и Ольга Гринтиева]
Language : Russian
Default : Yes
Forced : No

Audio #2
ID : 3
Format : AC-3
Format/Info : Audio Coding 3
Mode extension : CM (complete main)
Codec ID : A_AC3
Duration : 1h 52mn
Bit rate mode : Constant
Bit rate : 448 Kbps
Channel(s) : 6 channels
Channel positions : Front: L C R, Side: L R, LFE
Sampling rate : 48.0 KHz
Bit depth : 16 bits
Compression mode : Lossy
Stream size : 361 MiB (17%)
Language : Chinese
Default : No
Forced : No

Text #1
ID : 4
Format : UTF-8
Codec ID : S_TEXT/UTF8
Codec ID/Info : UTF-8 Plain Text
Title : Forced
Language : Russian
Default : Yes
Forced : No

Text #2
ID : 5
Format : UTF-8
Codec ID : S_TEXT/UTF8
Codec ID/Info : UTF-8 Plain Text
Language : Russian
Default : No
Forced : No

Text #3
ID : 6
Format : UTF-8
Codec ID : S_TEXT/UTF8
Codec ID/Info : UTF-8 Plain Text
Language : English
Default : No
Forced : No

Menu
00:00:00.000 : en:Chapter 01
00:07:44.463 : en:Chapter 02
00:17:24.293 : en:Chapter 03
00:27:03.330 : en:Chapter 04
00:35:26.749 : en:Chapter 05
00:45:17.089 : en:Chapter 06
00:58:16.326 : en:Chapter 07
01:07:58.657 : en:Chapter 08
01:20:44.756 : en:Chapter 09
01:32:19.992 : en:Chapter 10
01:41:58.237 : en:Chapter 11
01:48:57.531 : en:Chapter 12
01:52:45.383 : en:Chapter 13










За русскую дорогу - velbot.
За субтитры - Фансаб группа Паллата 666 (За основу были взяты сабы от Фансаб группы и подогнанны под тайминг к немецким сабам с BluRay)
загрузка...
Правила, инструкции, FAQ!!!
Торрент  Добавлен [14 сен 2013, 14:35] Скачать торрент
Скачать торрент
[ Размер 10.88 КБ / Просмотров 3 ]

Статус  
 
Размер  2.1 ГБ
Приватный: Нет (DHT включён)
.torrent скачан  0
Как залить торрент? | Как скачать Torrent? | Как смотреть и слушать онлайн?  


     Отправить личное сообщение
   
Страница 1 из 1
Показать сообщения за:  Поле сортировки  
Начать новую тему Ответить на тему

   Похожие торренты   Автор   Ответы   Просмотры   Последнее сообщение 
В этой теме нет новых непрочитанных сообщений. Скачать торрент Гильотина / Гильотины / Xue di zi / The Guillotines (2012) BDRip 1080p от Ash61 | 3D-Video | halfOU | L2

в форуме HD-Video в 3D, Размер: 15.5 ГБ, Здоровье: 0%

Anonymous

0
0|0

70
5

28 фев 2014, 20:48

Anonymous Перейти к последнему сообщению

В этой теме нет новых непрочитанных сообщений. Скачать торрент Проверен (Hardcore, Hardcore Punk, Crossover Thrash) Villainz United - Гильотина - 2016, MP3, 320 kbps

в форуме Русский Рок, Размер: 56.62 МБ, Здоровье: 100%

Anonymous

0
10|3

3
1

23 авг 2016, 10:29

Anonymous Перейти к последнему сообщению

В этой теме нет новых непрочитанных сообщений. Скачать торрент Проверен Rammstein: Videos 1995-2012 [2012, Industrial , BDRip (720p)]

в форуме Концерты (HD-Video), Размер: 21.24 ГБ, Здоровье: 100%

Гость

0
56|37

775
11

26 апр 2015, 22:42

Гость Перейти к последнему сообщению

В этой теме нет новых непрочитанных сообщений. Скачать торрент Проверен Coldplay - Live 2012 [2012, Alternative rock, post-Britpop, BDRip 1080p]

в форуме Концерты (HD-Video), Размер: 6.56 ГБ, Здоровье: 100%

Anonymous

0
1|0

0
0

23 окт 2016, 12:43

Anonymous Перейти к последнему сообщению

В этой теме нет новых непрочитанных сообщений. Скачать торрент Проверен [iPad] 2012 / 2012 (Роланд Эммерих / Roland Emmerich) [2009, фантастика, боевик, приключения, BDRip, 720p]

в форуме Фильмы для iPod, iPhone, iPad, Размер: 4.31 ГБ, Здоровье: 100%

Гость

0
5|1

31
0

11 май 2015, 01:37

Гость Перейти к последнему сообщению



Сейчас этот форум просматривают: нет зарегистрированных пользователей и гости: 1


Вы не можете начинать темы
Вы не можете отвечать на сообщения
Вы не можете редактировать свои сообщения
Вы не можете удалять свои сообщения
Вы не можете добавлять вложения

Перейти:  

!ВНИМАНИЕ!
 Ресурс не предоставляет электронные версии произведений, а занимается лишь коллекционированием и каталогизацией ссылок, присылаемых и публикуемых на форуме нашими читателями. Если вы являетесь правообладателем какого-либо представленного материала и не желаете чтобы ссылка на него находилась в нашем каталоге, свяжитесь с нами и мы незамедлительно удалим её. Файлы для обмена на трекере предоставлены пользователями сайта, и администрация не несёт ответственности за их содержание. Просьба не заливать файлы, защищенные авторскими правами, а также файлы нелегального содержания!