На всех торрентах на трекере установлена скидка на скачивание в размере 100 процентов(а).
 Возможность скачивания торрента НЕ зависит от ограничений при низком ратио, низком аплоаде, требуемом ратио или требуемом аплоаде.


Начать новую тему Ответить на тему
Статистика раздачи
Размер: 4.04 ГБ | Добавлен: 14 сен 2013, 00:17 | Скачали: 0
Сидеров: 0  [0 байт/сек]    Личеров: 0  [0 байт/сек]
Пред. тема | След. тема 

Автор
Сообщение

СообщениеДобавлено: 14 сен 2013, 00:17 

Название: Команда
Оригинальное название: The Crew
Год выхода: 2000
Жанр: Комедия, криминал
Режиссер: Майкл Диннер
В ролях: Ричард Дрейфусс, Берт Рейнолдс, Дэн Хедайя, Сеймур Кэссел, Кэрри-Энн Мосс, Дженнифер Тилли, Мигель Сандовал, Джереми Пивен, Кэйси Семашко, Лэйни Кэзан
О фильме:
Четверо бывших мафиози живут вместе в одном из отелей Майами. Однажды они узнают, что хозяин отеля хочет реконструировать его, чтобы привлечь богатых клиентов и навсегда, избавится от постояльцев-пенсионеров. Тогда, некогда крутые парни придумывают хитрый план: они похищают из морга неопознанный труп и инсценируют в холле гостиницы жестокое и кровавое убийство! Естественно, все кредиторы и подрядчики в ужасе разбегаются вместе со своими инвестициями. Друзья празднуют победу! Но не все прошло так гладко... Оказалось, что это труп отца главаря латинской мафии, и теперь мафиози готов на все, лишь бы найти убийц отца...


Страна: США, George Litto Productions Inc.
Продолжительность: 01:27:32
Перевод: Дублированный

Кодек: H.264
Качество: BDRip 720p
Видео: MPEG-4 AVC, 5713 Мбит/с, 1280x720, 23.976 кадр/с
Звук: Русский, английский (AC3, 6 ch, 448 Кбит/с)
Субтитры: Русские

Английский (AC3, 6 ch, 448 Кбит/с) с лицензионного DVD

Уникальный идентификатор : 178254543145364511769634534347245875390 (0x861A93843F1EB7A391FA968BC623F0BE)
Полное имя : D:Раздачи_DThe.Crew.2000.x264.BDRip.720p.NovaLan.mkv
Формат : Matroska
Версия формата : Version 4 / Version 2
Размер файла : 4,04 Гбайт
Продолжительность : 1 ч. 27 м.
Общий поток : 6607 Кбит/сек
Название фильма : The.Crew.2000.x264.BDRip.720p.NovaLan
Дата кодирования : UTC 2013-09-13 14:59:59
Программа кодирования : mkvmerge v6.3.0 ('You can't stop me!') built on Jun 28 2013 20:09:41
Библиотека кодирования : libebml v1.3.0 + libmatroska v1.4.0

Видео
Идентификатор : 1
Формат : AVC
Формат/Информация : Advanced Video Codec
Профиль формата : High@L4.1
Параметр CABAC формата : Да
Параметр ReFrames формата : 8 кадров
Идентификатор кодека : V_MPEG4/ISO/AVC
Продолжительность : 1 ч. 27 м.
Битрейт : 5713 Кбит/сек
Ширина : 1280 пикселей
Высота : 720 пикселей
Соотношение сторон : 16:9
Частота кадров : 23,976 кадра/сек
Цветовое пространство : YUV
Субдискретизация насыщенности : 4:2:0
Битовая глубина : 8 бит
Тип развёртки : Прогрессивная
Бит/(Пиксели*Кадры) : 0.259
Размер потока : 3,41 Гбайт (84%)
Заголовок : Sergei7721
Библиотека кодирования : x264 core 132 r2310 76a5c3a
Настройки программы : cabac=1 / ref=8 / deblock=1:-1:-1 / analyse=0x3:0x113 / me=umh / subme=10 / psy=1 / psy_rd=1.00:0.20 / mixed_ref=1 / me_range=32 / chroma_me=1 / trellis=2 / 8x8dct=1 / cqm=0 / deadzone=21,11 / fast_pskip=0 / chroma_qp_offset=-3 / threads=12 / lookahead_threads=1 / sliced_threads=0 / nr=0 / decimate=0 / interlaced=0 / bluray_compat=0 / constrained_intra=0 / bframes=6 / b_pyramid=2 / b_adapt=2 / b_bias=0 / direct=3 / weightb=1 / open_gop=0 / weightp=2 / keyint=240 / keyint_min=23 / scenecut=40 / intra_refresh=0 / rc_lookahead=40 / rc=2pass / mbtree=0 / bitrate=5713 / ratetol=1.0 / qcomp=0.60 / qpmin=0 / qpmax=69 / qpstep=4 / cplxblur=20.0 / qblur=0.5 / vbv_maxrate=50000 / vbv_bufsize=62500 / nal_hrd=none / ip_ratio=1.40 / pb_ratio=1.30 / aq=1:1.00
Язык : English
Default : Да
Forced : Нет

Аудио #1
Идентификатор : 2
Формат : AC-3
Формат/Информация : Audio Coding 3
Расширение режима : CM (complete main)
Параметр Endianness формата : Big
Идентификатор кодека : A_AC3
Продолжительность : 1 ч. 27 м.
Вид битрейта : Постоянный
Битрейт : 448 Кбит/сек
Каналы : 6 каналов
Расположение каналов : Front: L C R, Side: L R, LFE
Частота : 48,0 КГц
Битовая глубина : 16 бит
Метод сжатия : С потерями
Размер потока : 281 Мбайт (7%)
Язык : Russian
Default : Да
Forced : Нет

Аудио #2
Идентификатор : 3
Формат : AC-3
Формат/Информация : Audio Coding 3
Расширение режима : CM (complete main)
Параметр Endianness формата : Big
Идентификатор кодека : A_AC3
Продолжительность : 1 ч. 27 м.
Вид битрейта : Постоянный
Битрейт : 448 Кбит/сек
Каналы : 6 каналов
Расположение каналов : Front: L C R, Side: L R, LFE
Частота : 48,0 КГц
Битовая глубина : 16 бит
Метод сжатия : С потерями
Размер потока : 281 Мбайт (7%)
Язык : English
Default : Нет
Forced : Нет

Текст
Идентификатор : 4
Формат : UTF-8
Идентификатор кодека : S_TEXT/UTF8
Идентификатор кодека/Информация : UTF-8 Plain Text
Язык : Russian
Default : Да
Forced : Нет

Меню
00:00:00.000 : en:00:00:00.000
00:05:46.304 : en:00:05:46.304
00:12:02.680 : en:00:12:02.680
00:19:28.667 : en:00:19:28.667
00:26:28.587 : en:00:26:28.587
00:32:58.143 : en:00:32:58.143
00:41:38.996 : en:00:41:38.996
00:50:20.976 : en:00:50:20.976
01:00:13.610 : en:01:00:13.610
01:06:16.931 : en:01:06:16.931
01:13:20.104 : en:01:13:20.104
01:20:59.313 : en:01:20:59.313

Релиз группы NovaLan
Автор релиза Sergei7721






Релиз от:
загрузка...
Правила, инструкции, FAQ!!!
Торрент  Добавлен [14 сен 2013, 00:17] Скачать торрент
Скачать торрент
[ Размер 20.76 КБ / Просмотров 8 ]

Статус  
 
Размер  4.04 ГБ
Приватный: Нет (DHT включён)
.torrent скачан  0
Как залить торрент? | Как скачать Torrent? | Как смотреть и слушать онлайн?  


     Отправить личное сообщение
   
Страница 1 из 1
Показать сообщения за:  Поле сортировки  
Начать новую тему Ответить на тему

   Похожие торренты   Автор   Ответы   Просмотры   Последнее сообщение 
В этой теме нет новых непрочитанных сообщений. Скачать торрент Проверен Команда «А» / The A-Team (2010) BDRip 720p | Extended Cut

в форуме 720p | 1080p, Размер: 5.29 ГБ, Здоровье: 100%

Гость

0
40|5

16
206

01 дек 2014, 17:17

Гость Перейти к последнему сообщению

В этой теме нет новых непрочитанных сообщений. Скачать торрент Команда Орхеймов / Kompani Orheim (2012) BDRip 720p | L1

в форуме 720p | 1080p, Размер: 5.09 ГБ, Здоровье: 0%

Anonymous

0
0|0

19
0

04 фев 2014, 09:22

Anonymous Перейти к последнему сообщению

В этой теме нет новых непрочитанных сообщений. Скачать торрент Проверен Студенческая команда / Varsity Blues (1999) BDRip 720p | P2

в форуме 720p | 1080p, Размер: 3.98 ГБ, Здоровье: 100%

Anonymous

0
3|0

17
33

19 июл 2014, 17:48

Anonymous Перейти к последнему сообщению

В этой теме нет новых непрочитанных сообщений. Скачать торрент Команда Мечты / Les seigneurs (2012) BDRip 720p | D | Лицензия

в форуме 720p | 1080p, Размер: 4.63 ГБ, Здоровье: 0%

Anonymous

0
0|0

62
0

09 фев 2014, 21:42

Anonymous Перейти к последнему сообщению

В этой теме нет новых непрочитанных сообщений. Скачать торрент Команда «А» / The A-Team (2010) BDRip-AVC | Extended Cut

в форуме Боевики, Размер: 2.91 ГБ, Здоровье: 100%

Anonymous

0
69|21

27
144

21 янв 2014, 10:46

Anonymous Перейти к последнему сообщению



Сейчас этот форум просматривают: нет зарегистрированных пользователей и гости: 4


Вы не можете начинать темы
Вы не можете отвечать на сообщения
Вы не можете редактировать свои сообщения
Вы не можете удалять свои сообщения
Вы не можете добавлять вложения

Перейти:  

!ВНИМАНИЕ!
 Ресурс не предоставляет электронные версии произведений, а занимается лишь коллекционированием и каталогизацией ссылок, присылаемых и публикуемых на форуме нашими читателями. Если вы являетесь правообладателем какого-либо представленного материала и не желаете чтобы ссылка на него находилась в нашем каталоге, свяжитесь с нами и мы незамедлительно удалим её. Файлы для обмена на трекере предоставлены пользователями сайта, и администрация не несёт ответственности за их содержание. Просьба не заливать файлы, защищенные авторскими правами, а также файлы нелегального содержания!