На всех торрентах на трекере установлена скидка на скачивание в размере 100 процентов(а).
 Возможность скачивания торрента НЕ зависит от ограничений при низком ратио, низком аплоаде, требуемом ратио или требуемом аплоаде.


Начать новую тему Ответить на тему
Статистика раздачи
Размер: 11.49 ГБ | Добавлен: 14 сен 2013, 00:03 | Скачали: 12
Сидеров: 14  [0 байт/сек]    Личеров: 11  [0 байт/сек]
Пред. тема | След. тема 

Автор
Сообщение

СообщениеДобавлено: 14 сен 2013, 00:03 

Информация о фильме
Название: Обратная тяга
Оригинальное название: Backdraft
Год выпуска: 1991
Жанр: Боевик, триллер, драма, криминал, детектив
Выпущено: США, Universal Pictures
Режиссер: Рон Ховард
В ролях: Курт Рассел, Уильям Болдуин, Роберт Де Ниро, Дональд Сазерленд, Дженнифер Джейсон Ли, Скотт Гленн, Ребекка Де Морнэй, Джейсон Гедрик, Дж.Т. Уолш, Энтони Мокус ст.

Сюжет фильма:

«Обратная тяга» — это термин профессиональных пожарных. В результате «обратной тяги» погибает отец Брайана и Стивена. В отличии от Стивена, Брайан отказывается от карьеры пожарного, но судьба распоряжается так, что братья оказываются в одном отряде. Отношения между ними натянуты. Вскоре младший покидает команду, чтобы вместе со следователем поймать поджигателя-маньяка…


Выпущено: США, Universal Pictures
Продолжительность: 02:17:17
Перевод: Профессиональный Многоголосый закадровый, (Superbit) + Профессиональный Многоголосый закадровый, (Киномания) + Оригинальный (английский)
Файл
Качество: BDRip 1080p (исходник Blu-ray Disc)
Видео: 1920х816, ~10700 кбит/сек, 23.976 кадр/сек, 2.35:1, AVC, x264, 0.285 Бит/(Пиксели*Кадры), 2-pass
Аудио1: AC-3, 384 Кбит/сек, 6 канала(ов), 48,0 КГц - Профессиональный Многоголосый закадровый, (Superbit)
Аудио2: AC-3, 448 Кбит/сек, 6 канала(ов), 48,0 КГц - Профессиональный Многоголосый закадровый, (Киномания)
Аудио3: AC-3, 448 Кбит/сек, 6 канала(ов), 48,0 КГц - Оригинальный (английский)
Чаптеры Есть
Субтитры: Русские




Format : Matroska
Format version : Version 2
File size : 11.5 GiB
Duration : 2h 17mn
Overall bit rate : 12.0 Mbps
Movie name : Обратная тяга.(1991).BDRip.1080p.NoLimits-Team
Encoded date : UTC 2013-09-13 14:21:40
Writing application : mkvmerge v5.8.0 ('No Sleep / Pillow') built on Sep 2 2012 15:37:04
Writing library : libebml v1.2.3 + libmatroska v1.3.0

Video
ID : 1
Format : AVC
Format/Info : Advanced Video Codec
Format profile : High@L4.1
Format settings, CABAC : Yes
Format settings, ReFrames : 5 frames
Codec ID : V_MPEG4/ISO/AVC
Duration : 2h 17mn
Bit rate : 10.7 Mbps
Width : 1 920 pixels
Height : 816 pixels
Display aspect ratio : 2.35:1
Frame rate mode : Constant
Frame rate : 23.976 fps
Color space : YUV
Chroma subsampling : 4:2:0
Bit depth : 8 bits
Scan type : Progressive
Bits/(Pixel*Frame) : 0.285
Stream size : 10.0 GiB (87%)
Title : Обратная тяга.(1991).BDRip.720p.NoLimits-Team Release _denis_100
Writing library : x264 core 138 r2358 9e941d1
Encoding settings : cabac=1 / ref=5 / deblock=1:-3:-3 / analyse=0x3:0x113 / me=umh / subme=11 / psy=1 / psy_rd=1.00:0.15 / mixed_ref=1 / me_range=32 / chroma_me=1 / trellis=2 / 8x8dct=1 / cqm=0 / deadzone=21,11 / fast_pskip=0 / chroma_qp_offset=-3 / threads=6 / lookahead_threads=1 / sliced_threads=0 / nr=0 / decimate=0 / interlaced=0 / bluray_compat=0 / constrained_intra=0 / bframes=6 / b_pyramid=2 / b_adapt=2 / b_bias=0 / direct=3 / weightb=1 / open_gop=0 / weightp=2 / keyint=240 / keyint_min=23 / scenecut=40 / intra_refresh=0 / rc=2pass / mbtree=0 / bitrate=10700 / ratetol=1.0 / qcomp=0.60 / qpmin=0 / qpmax=69 / qpstep=4 / cplxblur=20.0 / qblur=0.5 / ip_ratio=1.40 / pb_ratio=1.30 / aq=1:0.95
Language : English
Default : Yes
Forced : No

Audio #1
ID : 2
Format : AC-3
Format/Info : Audio Coding 3
Mode extension : CM (complete main)
Format settings, Endianness : Big
Codec ID : A_AC3
Duration : 2h 17mn
Bit rate mode : Constant
Bit rate : 384 Kbps
Channel(s) : 6 channels
Channel positions : Front: L C R, Side: L R, LFE
Sampling rate : 48.0 KHz
Bit depth : 16 bits
Compression mode : Lossy
Stream size : 377 MiB (3%)
Title : Многоголосый закадровый, Superbit
Language : Russian
Default : No
Forced : No

Audio #2
ID : 3
Format : AC-3
Format/Info : Audio Coding 3
Mode extension : CM (complete main)
Format settings, Endianness : Big
Codec ID : A_AC3
Duration : 2h 17mn
Bit rate mode : Constant
Bit rate : 448 Kbps
Channel(s) : 6 channels
Channel positions : Front: L C R, Side: L R, LFE
Sampling rate : 48.0 KHz
Bit depth : 16 bits
Compression mode : Lossy
Stream size : 440 MiB (4%)
Title : Многоголосый закадровый, Киномания
Language : Russian
Default : No
Forced : No

Audio #3
ID : 4
Format : AC-3
Format/Info : Audio Coding 3
Mode extension : CM (complete main)
Format settings, Endianness : Big
Codec ID : A_AC3
Duration : 2h 17mn
Bit rate mode : Constant
Bit rate : 448 Kbps
Channel(s) : 6 channels
Channel positions : Front: L C R, Side: L R, LFE
Sampling rate : 48.0 KHz
Bit depth : 16 bits
Compression mode : Lossy
Stream size : 440 MiB (4%)
Title : Английский
Language : English
Default : No
Forced : No

Text
ID : 5
Format : UTF-8
Codec ID : S_TEXT/UTF8
Codec ID/Info : UTF-8 Plain Text
Title : Русские
Language : Russian
Default : No
Forced : No

Menu
00:00:00.000 : en:00:00:00.000
00:05:50.683 : en:00:05:50.683
00:15:46.654 : en:00:15:46.654
00:18:25.813 : en:00:18:25.813
00:39:06.093 : en:00:39:06.093
00:48:03.714 : en:00:48:03.714
00:51:57.072 : en:00:51:57.072
00:59:26.563 : en:00:59:26.563
01:03:27.845 : en:01:03:27.845
01:14:43.228 : en:01:14:43.228
01:24:18.386 : en:01:24:18.386
01:38:28.652 : en:01:38:28.652
01:42:03.158 : en:01:42:03.158
01:51:51.371 : en:01:51:51.371
02:03:19.558 : en:02:03:19.558
02:07:11.081 : en:02:07:11.081


x264 [info]: frame I:1172 Avg QP:17.11 size:182089
x264 [info]: frame P:49517 Avg QP:19.15 size: 86750
x264 [info]: frame B:146813 Avg QP:21.02 size: 44293


Релиз Группа: & Автор Рипа:

загрузка...
Правила, инструкции, FAQ!!!
Торрент  Добавлен [14 сен 2013, 00:03] Скачать торрент
Скачать торрент
[ Размер 57.92 КБ / Просмотров 11 ]

Статус  
 
Размер  11.49 ГБ
Приватный: Нет (DHT включён)
.torrent скачан  12
Как залить торрент? | Как скачать Torrent? | Как смотреть и слушать онлайн?  


     Отправить личное сообщение
   
Страница 1 из 1
Показать сообщения за:  Поле сортировки  
Начать новую тему Ответить на тему

   Похожие торренты   Автор   Ответы   Просмотры   Последнее сообщение 
В этой теме нет новых непрочитанных сообщений. Скачать торрент Проверен Обратная тяга / Backdraft (1991) HDRip | Р

в форуме Боевики, Размер: 1.45 ГБ, Здоровье: 100%

Гость

0
35|8

211
54

09 авг 2015, 22:15

Гость Перейти к последнему сообщению

В этой теме нет новых непрочитанных сообщений. Скачать торрент Проверен Обратная сторона Луны [01-16 из 16] (2012) BDRip-AVC

в форуме Отечественные сериалы, Размер: 11.98 ГБ, Здоровье: 100%

Гость

0
127|89

155
127

20 июл 2016, 20:51

Гость Перейти к последнему сообщению

В этой теме нет новых непрочитанных сообщений. Скачать торрент Проверен Дорз / The Doors (1991) BDRip [1080p]

в форуме Концерты (HD-Video), Размер: 12.71 ГБ, Здоровье: 100%

Anonymous

0
25|1

128
7

09 авг 2014, 21:03

Anonymous Перейти к последнему сообщению

В этой теме нет новых непрочитанных сообщений. Скачать торрент Проверен Ракетчик / The Rocketeer (1991) BDRip 1080p | P2, A

в форуме 720p | 1080p, Размер: 7.76 ГБ, Здоровье: 91%

Гость

0
68|74

38
88

24 ноя 2014, 23:43

Гость Перейти к последнему сообщению

В этой теме нет новых непрочитанных сообщений. Скачать торрент Полтергейст 2: Обратная сторона / Poltergeist II: The Other Side (1986) BDRip

в форуме Ужасы, Размер: 1.45 ГБ, Здоровье: 100%

Anonymous

0
40|14

46
16

20 фев 2014, 21:58

Anonymous Перейти к последнему сообщению



Сейчас этот форум просматривают: нет зарегистрированных пользователей и гости: 3


Вы не можете начинать темы
Вы не можете отвечать на сообщения
Вы не можете редактировать свои сообщения
Вы не можете удалять свои сообщения
Вы не можете добавлять вложения

Перейти:  

!ВНИМАНИЕ!
 Ресурс не предоставляет электронные версии произведений, а занимается лишь коллекционированием и каталогизацией ссылок, присылаемых и публикуемых на форуме нашими читателями. Если вы являетесь правообладателем какого-либо представленного материала и не желаете чтобы ссылка на него находилась в нашем каталоге, свяжитесь с нами и мы незамедлительно удалим её. Файлы для обмена на трекере предоставлены пользователями сайта, и администрация не несёт ответственности за их содержание. Просьба не заливать файлы, защищенные авторскими правами, а также файлы нелегального содержания!