На всех торрентах на трекере установлена скидка на скачивание в размере 100 процентов(а).
 Возможность скачивания торрента НЕ зависит от ограничений при низком ратио, низком аплоаде, требуемом ратио или требуемом аплоаде.


Начать новую тему Ответить на тему
Статистика раздачи
Размер: 7.95 ГБ | Добавлен: 13 сен 2013, 08:28 | Скачали: 0
Сидеров: 0  [0 байт/сек]    Личеров: 0  [0 байт/сек]
Пред. тема | След. тема 

Автор
Сообщение

СообщениеДобавлено: 13 сен 2013, 08:28 

Название: Экстрасенс
Оригинальное название: The Awakening
Год выхода: 2011
Жанр: ужасы, триллер, драма
Режиссер: Ник Мерфи
В ролях: Ребекка Холл, Доминик Уэст, Имелда Стонтон, Люси Коху, Джон Шрэпнел, Дайана Кент, Ричард Дерден, Элфи Филд, Тилли Восберг, Йен Ханмор

О фильме

Действие картины происходит в 1920 году. Ученый-скептик приезжает в загородную школу-интернат, где, по слухам, наблюдается повышенная спиритическая активность. Сначала она уверена, что сможет развенчать этот миф, но затем пугающая встреча со сверхъестественным заставляет ее изменить свое мнение…

Дополнительно

Выпущено: StudioCanal
Продолжительность: 01:46:42
Перевод: Дублированный

Файл

Качество: BDRip 1080p (исходник Blu-ray Disc)
Видео: 1920х816, 9781 Kbps, 23.976 кадр/сек, AVC, x264, 2.35, 0.260 Бит/(Пиксели*Кадры)
Аудио1: AC-3, 448 Кбит/сек, 6 канала(ов), 48,0 КГц |Дублированный|
Аудио2: AC-3, 448 Кбит/сек, 6 канала(ов), 48,0 КГц |English|
Чаптеры: Есть




Format : Matroska
Format version : Version 4 / Version 2
File size : 7.95 GiB
Duration : 1h 46mn
Overall bit rate : 10.7 Mbps
Movie name : Экстрасенс.(2011).BDRip1080p.от.[NoLimits-Team].[mitrian]
Encoded date : UTC 2013-09-11 15:41:47
Writing application : mkvmerge v6.3.0 ('You can't stop me!') built on Jun 28 2013 20:09:41
Writing library : libebml v1.3.0 + libmatroska v1.4.0

Video
ID : 1
Format : AVC
Format/Info : Advanced Video Codec
Format profile : High@L4.1
Format settings, CABAC : Yes
Format settings, ReFrames : 5 frames
Codec ID : V_MPEG4/ISO/AVC
Duration : 1h 46mn
Bit rate : 9 781 Kbps
Width : 1 920 pixels
Height : 816 pixels
Display aspect ratio : 2.35:1
Original display aspect ratio : 2.35:1
Frame rate mode : Constant
Frame rate : 23.976 fps
Color space : YUV
Chroma subsampling : 4:2:0
Bit depth : 8 bits
Scan type : Progressive
Bits/(Pixel*Frame) : 0.260
Stream size : 7.12 GiB (90%)
Title : Экстрасенс (2011) BDRip 1080p от NoLimits-Team
Writing library : x264 core 133 r2334 a3ac64b
Encoding settings : cabac=1 / ref=5 / deblock=1:0:0 / analyse=0x3:0x113 / me=umh / subme=10 / psy=1 / psy_rd=1.00:0.10 / mixed_ref=1 / me_range=32 / chroma_me=1 / trellis=2 / 8x8dct=1 / cqm=0 / deadzone=21,11 / fast_pskip=0 / chroma_qp_offset=-3 / threads=6 / lookahead_threads=1 / sliced_threads=0 / slices=4 / nr=0 / decimate=1 / interlaced=0 / bluray_compat=0 / constrained_intra=0 / bframes=5 / b_pyramid=2 / b_adapt=2 / b_bias=0 / direct=3 / weightb=1 / open_gop=0 / weightp=2 / keyint=240 / keyint_min=24 / scenecut=40 / intra_refresh=0 / rc_lookahead=60 / rc=2pass / mbtree=1 / bitrate=9781 / ratetol=2.0 / qcomp=0.60 / qpmin=0 / qpmax=51 / qpstep=4 / cplxblur=20.0 / qblur=0.5 / ip_ratio=1.40 / aq=1:1.00
Language : English
Default : Yes
Forced : No

Audio #1
ID : 2
Format : AC-3
Format/Info : Audio Coding 3
Mode extension : CM (complete main)
Format settings, Endianness : Big
Codec ID : A_AC3
Duration : 1h 46mn
Bit rate mode : Constant
Bit rate : 448 Kbps
Channel(s) : 6 channels
Channel positions : Front: L C R, Side: L R, LFE
Sampling rate : 48.0 KHz
Bit depth : 16 bits
Compression mode : Lossy
Stream size : 342 MiB (4%)
Title : Дублированный
Language : Russian
Default : Yes
Forced : No

Audio #2
ID : 3
Format : AC-3
Format/Info : Audio Coding 3
Mode extension : CM (complete main)
Format settings, Endianness : Big
Codec ID : A_AC3
Duration : 1h 46mn
Bit rate mode : Constant
Bit rate : 448 Kbps
Channel(s) : 6 channels
Channel positions : Front: L C R, Side: L R, LFE
Sampling rate : 48.0 KHz
Bit depth : 16 bits
Compression mode : Lossy
Stream size : 342 MiB (4%)
Language : English
Default : No
Forced : No

Menu
00:00:00.000 : en:00:00:00.000
00:07:04.716 : en:00:07:04.716
00:14:51.933 : en:00:14:51.933
00:21:48.015 : en:00:21:48.015
00:28:06.810 : en:00:28:06.810
00:38:28.640 : en:00:38:28.640
00:44:37.008 : en:00:44:37.008
00:52:36.111 : en:00:52:36.111
00:59:47.959 : en:00:59:47.959
01:06:28.902 : en:01:06:28.902
01:13:41.208 : en:01:13:41.208
01:20:34.038 : en:01:20:34.038
01:23:03.896 : en:01:23:03.896
01:28:24.841 : en:01:28:24.841
01:33:07.373 : en:01:33:07.373
01:42:14.670 : en:01:42:14.670






Релиз Группа | Автор Рипа: |
загрузка...
Правила, инструкции, FAQ!!!
Торрент  Добавлен [13 сен 2013, 08:28] Скачать торрент
Скачать торрент
[ Размер 20.55 КБ / Просмотров 7 ]

Статус  
 
Размер  7.95 ГБ
Приватный: Нет (DHT включён)
.torrent скачан  0
Как залить торрент? | Как скачать Torrent? | Как смотреть и слушать онлайн?  


     Отправить личное сообщение
   
Страница 1 из 1
Показать сообщения за:  Поле сортировки  
Начать новую тему Ответить на тему

   Похожие торренты   Автор   Ответы   Просмотры   Последнее сообщение 
В этой теме нет новых непрочитанных сообщений. Скачать торрент Проверен Экстрасенс / The Awakening (2011) BDRip 720p

в форуме 720p | 1080p, Размер: 2.53 ГБ, Здоровье: 100%

Anonymous

0
40|0

44
765

01 авг 2014, 16:13

Anonymous Перейти к последнему сообщению

В этой теме нет новых непрочитанных сообщений. Скачать торрент Проверен Экстрасенс 2: Лабиринты разума / Mindscape (2013) BDRip 720p | Чистый звук

в форуме 720p | 1080p, Размер: 5.98 ГБ, Здоровье: 0%

Гость

0
1|683

30
0

24 ноя 2014, 22:54

Гость Перейти к последнему сообщению

В этой теме нет новых непрочитанных сообщений. Скачать торрент Проверен (Melodic Hard Rock) Voodoo X - Vol. I: The Awakening - 1989 (Remastered 2011), MP3, 320 kbps

в форуме AOR (Melodic Hard Rock, Arena rock), Размер: 153.61 МБ, Здоровье: 0%

Anonymous

0
0|0

4
0

08 окт 2016, 12:01

Anonymous Перейти к последнему сообщению

В этой теме нет новых непрочитанных сообщений. Скачать торрент Проверен James Morrison - The Awakening (2011) [FLAC|Lossless]<Pop, Soft Rock, Soul>

в форуме Зарубежная музыка, Размер: 314.04 МБ, Здоровье: 50%

Гость

0
2|4

138
0

12 янв 2015, 21:56

Гость Перейти к последнему сообщению

В этой теме нет новых непрочитанных сообщений. Скачать торрент Проверен Для Чувств 2 / Forsenses II (2011) BDRip 1080p

в форуме Клипы (HD-Video), Размер: 6.85 ГБ, Здоровье: 100%

Гость

0
139|5

255
12

17 апр 2016, 22:07

Гость Перейти к последнему сообщению



Сейчас этот форум просматривают: нет зарегистрированных пользователей и гости: 2


Вы не можете начинать темы
Вы не можете отвечать на сообщения
Вы не можете редактировать свои сообщения
Вы не можете удалять свои сообщения
Вы не можете добавлять вложения

Перейти:  

!ВНИМАНИЕ!
 Ресурс не предоставляет электронные версии произведений, а занимается лишь коллекционированием и каталогизацией ссылок, присылаемых и публикуемых на форуме нашими читателями. Если вы являетесь правообладателем какого-либо представленного материала и не желаете чтобы ссылка на него находилась в нашем каталоге, свяжитесь с нами и мы незамедлительно удалим её. Файлы для обмена на трекере предоставлены пользователями сайта, и администрация не несёт ответственности за их содержание. Просьба не заливать файлы, защищенные авторскими правами, а также файлы нелегального содержания!