На всех торрентах на трекере установлена скидка на скачивание в размере 100 процентов(а).
 Возможность скачивания торрента НЕ зависит от ограничений при низком ратио, низком аплоаде, требуемом ратио или требуемом аплоаде.


Начать новую тему Ответить на тему
Статистика раздачи
Размер: 10.49 ГБ | Добавлен: 13 сен 2013, 07:34 | Скачали: 0
Сидеров: 0  [0 байт/сек]    Личеров: 0  [0 байт/сек]
Пред. тема | След. тема 

Автор
Сообщение

СообщениеДобавлено: 13 сен 2013, 07:34 

Информация о фильме
Название: Чёрный лебедь
Оригинальное название: Black Swan
Год выхода: 2010
Жанр: триллер, драма
Режиссер: Даррен Аронофски
В ролях: Натали Портман, Мила Кунис, Венсан Кассель, Барбара Херши, Вайнона Райдер, Себастьян Стэн, Тоби Хемингуэй, Бенжамен Мильпье, Ксения Соло, Кристина Анапау

О фильме: Сюжет картины строится вокруг примы балетного театра, у которой неожиданно появляется опасная конкурентка, способная отобрать у главной героини все партии. Соперничество усиливается по мере приближения ответственного выступления, которое должно решить все.



Выпущено: Fox Searchlight Pictures
Продолжительность: 01:48:07
Перевод: Дублированный (лицензия) + Авторский (Ю.Сербин)

Файл
Кодек: x264
Качество: BDRip (источник: Blu-ray Disc)
Видео: 1920x800 (2,40:1), 23.976 fps, 12.0 Mbps
Аудио #1: AC-3, 6 ch, 640 kbps (Дубляж)
Аудио #2: AC-3, 6 ch, 640 kbps (Одноголосый закадровый, Ю.Сербин)
Аудио #3: AC-3, 6 ch, 640 kbps (Original)
Субтитры: Русские, Английские
Скачать: сэмпл

Скриншоты

Общее
Уникальный идентификатор : 252141059424306470607267424137462811400 (0xBDB09A0617EF2D88983438401FB20B08)
Полное имя : Black.Swan.2010.BDRip.1080p.Rus.Eng.mkv
Формат : Matroska
Версия формата : Version 2
Размер файла : 10,5 Гбайт
Продолжительность : 1 ч. 48 м.
Общий поток : 13,9 Мбит/сек
Название фильма : Чёрный лебедь / Black Swan (2010)
Дата кодирования : UTC 2013-09-12 20:11:59
Программа кодирования : mkvmerge v5.8.0 ('No Sleep / Pillow') built on Sep 2 2012 15:37:04
Библиотека кодирования : libebml v1.2.3 + libmatroska v1.3.0

Видео
Идентификатор : 1
Формат : AVC
Формат/Информация : Advanced Video Codec
Профиль формата : High@L4.1
Параметр CABAC формата : Да
Параметр ReFrames формата : 5 кадров
Идентификатор кодека : V_MPEG4/ISO/AVC
Продолжительность : 1 ч. 48 м.
Битрейт : 12,0 Мбит/сек
Ширина : 1920 пикселей
Высота : 800 пикселей
Соотношение сторон : 2,40:1
Частота кадров : 23,976 кадра/сек
Цветовое пространство : YUV
Субдискретизация насыщенности : 4:2:0
Битовая глубина : 8 бит
Тип развёртки : Прогрессивная
Бит/(Пиксели*Кадры) : 0.325
Размер потока : 8,83 Гбайт (84%)
Заголовок : Release by AlexKa
Библиотека кодирования : x264 core 138 r2358 9e941d1
Настройки программы : cabac=1 / ref=5 / deblock=1:-3:-3 / analyse=0x3:0x133 / me=umh / subme=9 / psy=1 / psy_rd=1.00:0.10 / mixed_ref=1 / me_range=32 / chroma_me=1 / trellis=2 / 8x8dct=1 / cqm=0 / deadzone=21,11 / fast_pskip=0 / chroma_qp_offset=-3 / threads=12 / lookahead_threads=3 / sliced_threads=0 / nr=0 / decimate=1 / interlaced=0 / bluray_compat=0 / constrained_intra=0 / bframes=13 / b_pyramid=2 / b_adapt=2 / b_bias=0 / direct=3 / weightb=1 / open_gop=0 / weightp=2 / keyint=240 / keyint_min=23 / scenecut=40 / intra_refresh=0 / rc=2pass / mbtree=0 / bitrate=11961 / ratetol=1.0 / qcomp=0.70 / qpmin=0 / qpmax=69 / qpstep=4 / cplxblur=20.0 / qblur=0.5 / ip_ratio=1.40 / pb_ratio=1.30 / aq=1:0.90
Язык : English

Аудио #1
Идентификатор : 2
Формат : AC-3
Формат/Информация : Audio Coding 3
Расширение режима : CM (complete main)
Идентификатор кодека : A_AC3
Продолжительность : 1 ч. 48 м.
Вид битрейта : Постоянный
Битрейт : 640 Кбит/сек
Каналы : 6 каналов
Расположение каналов : Front: L C R, Side: L R, LFE
Частота : 48,0 КГц
Битовая глубина : 16 бит
Метод сжатия : С потерями
Размер потока : 495 Мбайт (5%)
Заголовок : Дубляж
Язык : Russian

Аудио #2
Идентификатор : 3
Формат : AC-3
Формат/Информация : Audio Coding 3
Расширение режима : CM (complete main)
Идентификатор кодека : A_AC3
Продолжительность : 1 ч. 48 м.
Вид битрейта : Постоянный
Битрейт : 640 Кбит/сек
Каналы : 6 каналов
Расположение каналов : Front: L C R, Side: L R, LFE
Частота : 48,0 КГц
Битовая глубина : 16 бит
Метод сжатия : С потерями
Размер потока : 495 Мбайт (5%)
Заголовок : Одноголосый закадровый, Ю.Сербин
Язык : Russian

Аудио #3
Идентификатор : 4
Формат : AC-3
Формат/Информация : Audio Coding 3
Расширение режима : CM (complete main)
Идентификатор кодека : A_AC3
Продолжительность : 1 ч. 48 м.
Вид битрейта : Постоянный
Битрейт : 640 Кбит/сек
Каналы : 6 каналов
Расположение каналов : Front: L C R, Side: L R, LFE
Частота : 48,0 КГц
Битовая глубина : 16 бит
Метод сжатия : С потерями
Размер потока : 495 Мбайт (5%)
Заголовок : Original
Язык : English

Текст #1
Идентификатор : 5
Формат : UTF-8
Идентификатор кодека : S_TEXT/UTF8
Идентификатор кодека/Информация : UTF-8 Plain Text
Заголовок : Rus
Язык : Russian

Текст #2
Идентификатор : 6
Формат : UTF-8
Идентификатор кодека : S_TEXT/UTF8
Идентификатор кодека/Информация : UTF-8 Plain Text
Заголовок : Eng
Язык : English

Меню
00:00:00.000 : :Chapter 01
00:06:18.044 : :Chapter 02
00:12:54.732 : :Chapter 03
00:16:35.077 : :Chapter 04
00:19:06.687 : :Chapter 05
00:21:53.020 : :Chapter 06
00:26:33.592 : :Chapter 07
00:29:43.865 : :Chapter 08
00:32:18.811 : :Chapter 09
00:36:05.872 : :Chapter 10
00:40:42.606 : :Chapter 11
00:43:52.129 : :Chapter 12
00:46:39.838 : :Chapter 13
00:49:33.679 : :Chapter 14
00:52:38.488 : :Chapter 15
00:55:47.886 : :Chapter 16
00:58:23.875 : :Chapter 17
01:06:56.095 : :Chapter 18
01:10:15.794 : :Chapter 19
01:13:26.485 : :Chapter 20
01:18:28.370 : :Chapter 21
01:22:49.798 : :Chapter 22
01:25:31.793 : :Chapter 23
01:28:40.565 : :Chapter 24
01:32:53.234 : :Chapter 25
01:34:35.044 : :Chapter 26
01:37:47.444 : :Chapter 27
01:42:57.796 : :Chapter 28
01:48:07.272 : :Chapter 29
загрузка...
Правила, инструкции, FAQ!!!
Торрент  Добавлен [13 сен 2013, 07:34] Скачать торрент
Скачать торрент
[ Размер 52.9 КБ / Просмотров 5 ]

Статус  
 
Размер  10.49 ГБ
Приватный: Нет (DHT включён)
.torrent скачан  0
Как залить торрент? | Как скачать Torrent? | Как смотреть и слушать онлайн?  


     Отправить личное сообщение
   
Страница 1 из 1
Показать сообщения за:  Поле сортировки  
Начать новую тему Ответить на тему

   Похожие торренты   Автор   Ответы   Просмотры   Последнее сообщение 
В этой теме нет новых непрочитанных сообщений. Скачать торрент Чёрный лебедь / Black Swan (Даррен Аронофски / Darren Aronofsky) [2010, США, триллер, драма, BDRip] Dub

в форуме Триллеры, Размер: 2.18 ГБ, Здоровье: 0%

Anonymous

0
0|0

62
0

02 апр 2014, 12:07

Anonymous Перейти к последнему сообщению

В этой теме нет новых непрочитанных сообщений. Скачать торрент Проверен [PSP] Черный Лебедь / Black Swan (2010) DVDRip

в форуме Видео для смартфонов и КПК, Размер: 368.29 МБ, Здоровье: 100%

Anonymous

0
2|2

37
0

25 окт 2014, 23:14

Anonymous Перейти к последнему сообщению

В этой теме нет новых непрочитанных сообщений. Скачать торрент Проверен Чёрный пёс / Black Dog (1998) BDRip 1080p | P, P2, A

в форуме 720p | 1080p, Размер: 8.9 ГБ, Здоровье: 100%

Гость

0
10|3

190
39

02 июл 2016, 13:28

Гость Перейти к последнему сообщению

В этой теме нет новых непрочитанных сообщений. Скачать торрент Черный рыцарь / Black Knight (2001) BDRip 1080p

в форуме 720p | 1080p, Размер: 5.75 ГБ, Здоровье: 0%

Anonymous

0
0|0

48
0

03 янв 2014, 12:27

Anonymous Перейти к последнему сообщению

В этой теме нет новых непрочитанных сообщений. Скачать торрент Проверен (Шансон) Елена Кантер – Черный лебедь - 2010, MP3 (tracks), 320 kbps

в форуме Шансон|Авторская песня, Размер: 111.77 МБ, Здоровье: 0%

Anonymous

0
0|0

1
0

05 ноя 2016, 17:43

Anonymous Перейти к последнему сообщению



Сейчас этот форум просматривают: нет зарегистрированных пользователей и гости: 2


Вы не можете начинать темы
Вы не можете отвечать на сообщения
Вы не можете редактировать свои сообщения
Вы не можете удалять свои сообщения
Вы не можете добавлять вложения

Перейти:  

!ВНИМАНИЕ!
 Ресурс не предоставляет электронные версии произведений, а занимается лишь коллекционированием и каталогизацией ссылок, присылаемых и публикуемых на форуме нашими читателями. Если вы являетесь правообладателем какого-либо представленного материала и не желаете чтобы ссылка на него находилась в нашем каталоге, свяжитесь с нами и мы незамедлительно удалим её. Файлы для обмена на трекере предоставлены пользователями сайта, и администрация не несёт ответственности за их содержание. Просьба не заливать файлы, защищенные авторскими правами, а также файлы нелегального содержания!