На всех торрентах на трекере установлена скидка на скачивание в размере 100 процентов(а).
 Возможность скачивания торрента НЕ зависит от ограничений при низком ратио, низком аплоаде, требуемом ратио или требуемом аплоаде.


Начать новую тему Ответить на тему
Статистика раздачи
Размер: 4.37 ГБ | Добавлен: 12 сен 2013, 22:12 | Скачали: 31
Сидеров: 15  [0 байт/сек]    Личеров: 2  [0 байт/сек]
Пред. тема | След. тема 

Автор
Сообщение

СообщениеДобавлено: 12 сен 2013, 22:12 

Информация о фильме
Название: Переводчица
Оригинальное название: The Interpreter
Год выпуска: 2005
Жанр: Триллер, драма, криминал
Выпущено: Великобритания, США, Франция, Германия, Mirage Entertainment, Misher Films, Motion Picture JOTA Produktions, Studio Canal, Universal Pictures, Working Title Films
Режиссер: Сидни Поллак
В ролях: Николь Кидман, Шон Пенн, Кэтрин Кинер, Джеспер Кристенсен, Иван Атталь, Эрл Кэмерон, Джордж Харрис, Майкл Райт, Клайд Кусацу, Эрик Кинлисайд, Хьюго Спир, Маз Джобрани, Юсуф Гейтвуд, Кертисс Кук, Байрон Атли, Роберт Клохесси, Терри Серпико, Джон Нокс, Дэвид Зайас

Сюжет фильма:

Переводчица случайно узнает о готовящемся убийстве главы одного африканского государства, который должен на днях посетить Генеральную ассамблею ООН. Пытаясь предотвратить покушение, она подвергает свою жизнь смертельной опасности. И пока она сама не стала жертвой, ей отчаянно нужно, чтобы кто-нибудь ей поверил и помог…


Выпущено: Великобритания, США, Франция, Германия
Продолжительность: 02:08:19
Перевод: Дублированный + Оригинальный (английский)
Файл
Качество: BDRip 720p (исходник Blu-ray Disc)
Видео: 1280х544, 3 596 кбит/сек, 23.976 кадр/сек, 2.35:1, AVC, x264, 0.215 Бит/(Пиксели*Кадры), 2-pass
Аудио1: AC-3, 448 Кбит/сек, 6 канала(ов), 48,0 КГц - Дублированный
Аудио2: AC-3, 448 Кбит/сек, 6 канала(ов), 48,0 КГц - Оригинальный (английский)
Чаптеры Есть
Субтитры: нет




Format : Matroska
Format version : Version 2
File size : 4.37 GiB
Duration : 2h 8mn
Overall bit rate : 4 875 Kbps
Movie name : Переводчица.(2005).BDRip.720p.NoLimits-Team
Encoded date : UTC 2013-09-12 14:06:16
Writing application : mkvmerge v5.8.0 ('No Sleep / Pillow') built on Sep 2 2012 15:37:04
Writing library : libebml v1.2.3 + libmatroska v1.3.0

Video
ID : 1
Format : AVC
Format/Info : Advanced Video Codec
Format profile : High@L4.1
Format settings, CABAC : Yes
Format settings, ReFrames : 11 frames
Codec ID : V_MPEG4/ISO/AVC
Duration : 2h 8mn
Bit rate : 3 596 Kbps
Width : 1 280 pixels
Height : 544 pixels
Display aspect ratio : 2.35:1
Frame rate mode : Constant
Frame rate : 23.976 fps
Color space : YUV
Chroma subsampling : 4:2:0
Bit depth : 8 bits
Scan type : Progressive
Bits/(Pixel*Frame) : 0.215
Stream size : 3.14 GiB (72%)
Title : Переводчица.(2005).BDRip.720p.NoLimits-Team Release _denis_100
Writing library : x264 core 138 r2358 9e941d1
Encoding settings : cabac=1 / ref=11 / deblock=1:-3:-3 / analyse=0x3:0x113 / me=umh / subme=11 / psy=1 / psy_rd=1.00:0.15 / mixed_ref=1 / me_range=32 / chroma_me=1 / trellis=2 / 8x8dct=1 / cqm=0 / deadzone=21,11 / fast_pskip=0 / chroma_qp_offset=-3 / threads=6 / lookahead_threads=1 / sliced_threads=0 / nr=0 / decimate=0 / interlaced=0 / bluray_compat=0 / constrained_intra=0 / bframes=6 / b_pyramid=2 / b_adapt=2 / b_bias=0 / direct=3 / weightb=1 / open_gop=0 / weightp=2 / keyint=240 / keyint_min=23 / scenecut=40 / intra_refresh=0 / rc=2pass / mbtree=0 / bitrate=3596 / ratetol=1.0 / qcomp=0.60 / qpmin=0 / qpmax=69 / qpstep=4 / cplxblur=20.0 / qblur=0.5 / ip_ratio=1.40 / pb_ratio=1.30 / aq=1:0.95
Language : English
Default : Yes
Forced : No

Audio #1
ID : 2
Format : AC-3
Format/Info : Audio Coding 3
Mode extension : CM (complete main)
Format settings, Endianness : Big
Codec ID : A_AC3
Duration : 2h 8mn
Bit rate mode : Constant
Bit rate : 640 Kbps
Channel(s) : 6 channels
Channel positions : Front: L C R, Side: L R, LFE
Sampling rate : 48.0 KHz
Bit depth : 16 bits
Compression mode : Lossy
Stream size : 587 MiB (13%)
Title : Дублированный
Default : Yes
Forced : No

Audio #2
ID : 3
Format : AC-3
Format/Info : Audio Coding 3
Mode extension : CM (complete main)
Format settings, Endianness : Big
Codec ID : A_AC3
Duration : 2h 8mn
Bit rate mode : Constant
Bit rate : 640 Kbps
Channel(s) : 6 channels
Channel positions : Front: L C R, Side: L R, LFE
Sampling rate : 48.0 KHz
Bit depth : 16 bits
Compression mode : Lossy
Stream size : 587 MiB (13%)
Title : Английский
Default : No
Forced : No

Menu
00:00:00.000 : en:00:00:00.000
00:05:43.802 : en:00:05:43.802
00:11:28.688 : en:00:11:28.688
00:18:40.870 : en:00:18:40.870
00:24:54.827 : en:00:24:54.827
00:32:38.123 : en:00:32:38.123
00:36:51.459 : en:00:36:51.459
00:45:13.961 : en:00:45:13.961
00:53:15.442 : en:00:53:15.442
00:59:37.866 : en:00:59:37.866
01:05:52.157 : en:01:05:52.157
01:11:46.219 : en:01:11:46.219
01:16:21.535 : en:01:16:21.535
01:23:53.487 : en:01:23:53.487
01:30:49.027 : en:01:30:49.027
01:38:09.092 : en:01:38:09.092
01:43:44.218 : en:01:43:44.218
01:49:06.165 : en:01:49:06.165
01:58:24.139 : en:01:58:24.139
02:03:47.378 : en:02:03:47.378


x264 [info]: frame I:1333 Avg QP:16.39 size: 82557
x264 [info]: frame P:48657 Avg QP:17.51 size: 42476
x264 [info]: frame B:147512 Avg QP:19.32 size: 17818


Релиз Группа: & Автор Рипа:

загрузка...
Правила, инструкции, FAQ!!!
Торрент  Добавлен [12 сен 2013, 22:12] Скачать торрент
Скачать торрент
[ Размер 22.29 КБ / Просмотров 6 ]

Статус  
 
Размер  4.37 ГБ
Приватный: Нет (DHT включён)
.torrent скачан  31
Как залить торрент? | Как скачать Torrent? | Как смотреть и слушать онлайн?  


     Отправить личное сообщение
   
Страница 1 из 1
Показать сообщения за:  Поле сортировки  
Начать новую тему Ответить на тему

   Похожие торренты   Автор   Ответы   Просмотры   Последнее сообщение 
В этой теме нет новых непрочитанных сообщений. Скачать торрент Проверен The Strat Pack: Live In Concert (2005) (Terry Shand, Geoff Kemplin) [2005, Rock, BDRip, 720p]

в форуме Концерты (HD-Video), Размер: 8.7 ГБ, Здоровье: 100%

Anonymous

0
1|0

0
0

23 окт 2016, 15:44

Anonymous Перейти к последнему сообщению

В этой теме нет новых непрочитанных сообщений. Скачать торрент 9 рота (2005) BDRip 720p

в форуме 720p | 1080p, Размер: 7.91 ГБ, Здоровье: 0%

Anonymous

0
0|0

34
0

02 янв 2014, 18:04

Anonymous Перейти к последнему сообщению

В этой теме нет новых непрочитанных сообщений. Скачать торрент Проверен Домино / Domino (2005) BDRip 720p | D, P2

в форуме 720p | 1080p, Размер: 6.96 ГБ, Здоровье: 100%

Гость

0
7|2

46
10

21 май 2015, 10:13

Гость Перейти к последнему сообщению

В этой теме нет новых непрочитанных сообщений. Скачать торрент Проверен Хаос / Chaos (2005) BDRip 720p | D, P2, A

в форуме 720p | 1080p, Размер: 3.85 ГБ, Здоровье: 100%

Anonymous

0
62|21

43
141

26 мар 2015, 21:16

Anonymous Перейти к последнему сообщению

В этой теме нет новых непрочитанных сообщений. Скачать торрент Проверен Пиджак / The Jacket (2005) BDRip 720p | D

в форуме 720p | 1080p, Размер: 3.75 ГБ, Здоровье: 100%

Anonymous

0
51|3

83
332

19 сен 2014, 19:24

Anonymous Перейти к последнему сообщению



Сейчас этот форум просматривают: нет зарегистрированных пользователей и гости: 1


Вы не можете начинать темы
Вы не можете отвечать на сообщения
Вы не можете редактировать свои сообщения
Вы не можете удалять свои сообщения
Вы не можете добавлять вложения

Перейти:  

!ВНИМАНИЕ!
 Ресурс не предоставляет электронные версии произведений, а занимается лишь коллекционированием и каталогизацией ссылок, присылаемых и публикуемых на форуме нашими читателями. Если вы являетесь правообладателем какого-либо представленного материала и не желаете чтобы ссылка на него находилась в нашем каталоге, свяжитесь с нами и мы незамедлительно удалим её. Файлы для обмена на трекере предоставлены пользователями сайта, и администрация не несёт ответственности за их содержание. Просьба не заливать файлы, защищенные авторскими правами, а также файлы нелегального содержания!