На всех торрентах на трекере установлена скидка на скачивание в размере 100 процентов(а).
 Возможность скачивания торрента НЕ зависит от ограничений при низком ратио, низком аплоаде, требуемом ратио или требуемом аплоаде.


Начать новую тему Ответить на тему
Статистика раздачи
Размер: 7.93 ГБ | Добавлен: 11 сен 2013, 09:03 | Скачали: 0
Сидеров: 0  [0 байт/сек]    Личеров: 0  [0 байт/сек]
Пред. тема | След. тема 

Автор
Сообщение

СообщениеДобавлено: 11 сен 2013, 09:03 

Информация о фильме
    Русское название: Машина времени в джакузи
    Оригинальное название: Hot Tub Time Machine
    Год выхода: 2010
    Жанр: Фантастика, комедия
    Режиссер: Стив Пинк
    Выпущено: США
    Продолжительность: 01:38:56
    Перевод: Дублированный
    В ролях: Джон Кьюсак, Кларк Дьюк, Крэйг Робинсон, Роб Кордри, Себастиан Стэн, Линдси Фонсека, Криспин Гловер, Чеви Чейз, Чарли МакДермотт, Лиззи Каплан


Сюжет фильма
    В 2010 году четверо «гениев», благодаря своим экспериментам с алкоголем, научились управлять пространственно-временным континуумом. Портал, расположенный непосредственно в джакузи на горнолыжном курорте, как им показалось, позволяет вернуться в далёкий 1986 год.


Файл
    Качество: BDRip 1080p (DVD9) (исходник Blu-ray Remux)
    Видео: 1920x1036, 10419 Кбит/сек, 23,976 кадр/сек, AVC, x264, High@L4.1, 1.85:1, 0.218 Бит/[Пиксели*Кадры], 2pass
    Аудио 1: AC-3, 448 Кбит/сек, 6 канала(ов), 48,0 КГц - Дублированный / Русский
    Аудио 2: AC-3, 640 Кбит/сек, 6 канала(ов), 48,0 КГц - Оригинал / Английский
    Субтитры: Русские | Полные, Английские | SDH Полные
    Чаптеры: Есть



Релиз Группа : & Автор Рипа :



Format : Matroska
Format version : Version 4 / Version 2
File size : 7.93 GiB
Duration : 1h 38mn
Overall bit rate : 11.5 Mbps
Movie name : Машина времени в джакузи.(2010).BDRip.1080p.(DVD9).[NoLimits-Team]
Encoded date : UTC 2013-08-21 09:25:27
Writing application : mkvmerge v6.3.0 ('You can't stop me!') built on Jun 28 2013 20:09:41
Writing library : libebml v1.3.0 + libmatroska v1.4.0

Video
ID : 1
Format : AVC
Format/Info : Advanced Video Codec
Format profile : High@L4.1
Format settings, CABAC : Yes
Format settings, ReFrames : 4 frames
Codec ID : V_MPEG4/ISO/AVC
Duration : 1h 38mn
Bit rate : 10.4 Mbps
Width : 1 920 pixels
Height : 1 036 pixels
Display aspect ratio : 1.85:1
Frame rate mode : Constant
Frame rate : 23.976 fps
Color space : YUV
Chroma subsampling : 4:2:0
Bit depth : 8 bits
Scan type : Progressive
Bits/(Pixel*Frame) : 0.218
Stream size : 7.02 GiB (89%)
Title : Машина времени в джакузи.(2010).BDRip.1080p.(DVD9).[NoLimits-Team]
Writing library : x264 core 135 r2345 f0c1c53
Encoding settings : cabac=1 / ref=4 / deblock=1:-3:-3 / analyse=0x3:0x133 / me=umh / subme=11 / psy=1 / psy_rd=1.00:0.00 / mixed_ref=1 / me_range=32 / chroma_me=1 / trellis=2 / 8x8dct=1 / cqm=0 / deadzone=21,11 / fast_pskip=0 / chroma_qp_offset=-2 / threads=12 / lookahead_threads=1 / sliced_threads=0 / nr=0 / decimate=1 / interlaced=0 / bluray_compat=0 / constrained_intra=0 / bframes=6 / b_pyramid=2 / b_adapt=2 / b_bias=0 / direct=3 / weightb=1 / open_gop=0 / weightp=2 / keyint=240 / keyint_min=23 / scenecut=40 / intra_refresh=0 / rc=2pass / mbtree=0 / bitrate=10419 / ratetol=2.0 / qcomp=0.60 / qpmin=0 / qpmax=69 / qpstep=4 / cplxblur=20.0 / qblur=0.5 / ip_ratio=1.40 / pb_ratio=1.30 / aq=1:1.00
Language : English
Default : Yes
Forced : No

Audio #1
ID : 2
Format : AC-3
Format/Info : Audio Coding 3
Mode extension : CM (complete main)
Format settings, Endianness : Big
Codec ID : A_AC3
Duration : 1h 38mn
Bit rate mode : Constant
Bit rate : 448 Kbps
Channel(s) : 6 channels
Channel positions : Front: L C R, Side: L R, LFE
Sampling rate : 48.0 KHz
Bit depth : 16 bits
Compression mode : Lossy
Stream size : 317 MiB (4%)
Title : Дублированный
Language : Russian
Default : Yes
Forced : No

Audio #2
ID : 3
Format : AC-3
Format/Info : Audio Coding 3
Mode extension : CM (complete main)
Format settings, Endianness : Big
Codec ID : A_AC3
Duration : 1h 38mn
Bit rate mode : Constant
Bit rate : 640 Kbps
Channel(s) : 6 channels
Channel positions : Front: L C R, Side: L R, LFE
Sampling rate : 48.0 KHz
Bit depth : 16 bits
Compression mode : Lossy
Stream size : 453 MiB (6%)
Title : Английский
Language : English
Default : No
Forced : No

Text #1
ID : 4
Format : UTF-8
Codec ID : S_TEXT/UTF8
Codec ID/Info : UTF-8 Plain Text
Title : Русские (полные)
Language : Russian
Default : No
Forced : No

Text #2
ID : 5
Format : UTF-8
Codec ID : S_TEXT/UTF8
Codec ID/Info : UTF-8 Plain Text
Title : Full (SDH)
Language : English
Default : No
Forced : No

Menu
00:00:00.000 : :Chapter 01
00:04:43.908 : :Chapter 02
00:09:42.748 : :Chapter 03
00:12:41.844 : :Chapter 04
00:16:53.178 : :Chapter 05
00:19:25.789 : :Chapter 06
00:21:45.345 : :Chapter 07
00:26:11.695 : :Chapter 08
00:29:02.323 : :Chapter 09
00:32:09.010 : :Chapter 10
00:36:50.750 : :Chapter 11
00:39:59.772 : :Chapter 12
00:43:41.952 : :Chapter 13
00:46:57.147 : :Chapter 14
00:48:34.703 : :Chapter 15
00:50:12.467 : :Chapter 16
00:53:46.514 : :Chapter 17
00:57:07.257 : :Chapter 18
01:00:04.350 : :Chapter 19
01:02:34.375 : :Chapter 20
01:05:06.610 : :Chapter 21
01:08:57.216 : :Chapter 22
01:13:51.385 : :Chapter 23
01:17:26.390 : :Chapter 24
01:19:10.954 : :Chapter 25
01:23:45.103 : :Chapter 26
01:25:54.399 : :Chapter 27
01:31:36.782 : :Chapter 28


загрузка...
Правила, инструкции, FAQ!!!
Торрент  Добавлен [11 сен 2013, 09:03] Скачать торрент
Скачать торрент
[ Размер 40.13 КБ / Просмотров 12 ]

Статус  
 
Размер  7.93 ГБ
Приватный: Нет (DHT включён)
.torrent скачан  0
Как залить торрент? | Как скачать Torrent? | Как смотреть и слушать онлайн?  


     Отправить личное сообщение
   
Страница 1 из 1
Показать сообщения за:  Поле сортировки  
Начать новую тему Ответить на тему

   Похожие торренты   Автор   Ответы   Просмотры   Последнее сообщение 
В этой теме нет новых непрочитанных сообщений. Скачать торрент Машина времени в джакузи / Hot Tub Time Machine (Стив Пинк / Steve Pink) [2010, США, фантастика, комедия, BDRip] [Театральная версия / Theatrical Cut] Dub

в форуме Фантастика, Фэнтези, Размер: 1.45 ГБ, Здоровье: 100%

Anonymous

0
56|19

92
0

04 фев 2014, 21:25

Anonymous Перейти к последнему сообщению

В этой теме нет новых непрочитанных сообщений. Скачать торрент Машина времени / The Time Machine (2002) BDRip 1080p

в форуме 720p | 1080p, Размер: 5.76 ГБ, Здоровье: 100%

Anonymous

0
52|3

36
573

20 апр 2014, 08:04

Anonymous Перейти к последнему сообщению

В этой теме нет новых непрочитанных сообщений. Скачать торрент Машина / The Machine (2013) BDRip 1080p | L1

в форуме 720p | 1080p, Размер: 7.09 ГБ, Здоровье: 0%

Anonymous

0
0|0

26
0

13 апр 2014, 09:01

Anonymous Перейти к последнему сообщению

В этой теме нет новых непрочитанных сообщений. Скачать торрент Машина времени / The Time Machine (2002) DTheater-Rip-AVC

в форуме Фантастика, Фэнтези, Размер: 1.45 ГБ, Здоровье: 100%

Anonymous

0
42|1

37
400

20 апр 2014, 08:09

Anonymous Перейти к последнему сообщению

В этой теме нет новых непрочитанных сообщений. Скачать торрент Проверен Летающая машина в 3Д / The Flying Machine 3D (Мартин Клэпп, Дорота Кобеля, Джофф Линдси / Martin Clapp, Dorota Kobiela, Geoff Lindsey) [2011, Мультфильм, Музыкальный, Приключения, Семейный, BDrip, 1080p] OverUnder / Вертикальная стереопара

в форуме 3D Мультфильмы, Размер: 11.65 ГБ, Здоровье: 0%

Anonymous

0
0|0

3
0

07 сен 2016, 17:33

Anonymous Перейти к последнему сообщению



Сейчас этот форум просматривают: нет зарегистрированных пользователей и гости: 4


Вы не можете начинать темы
Вы не можете отвечать на сообщения
Вы не можете редактировать свои сообщения
Вы не можете удалять свои сообщения
Вы не можете добавлять вложения

Перейти:  

!ВНИМАНИЕ!
 Ресурс не предоставляет электронные версии произведений, а занимается лишь коллекционированием и каталогизацией ссылок, присылаемых и публикуемых на форуме нашими читателями. Если вы являетесь правообладателем какого-либо представленного материала и не желаете чтобы ссылка на него находилась в нашем каталоге, свяжитесь с нами и мы незамедлительно удалим её. Файлы для обмена на трекере предоставлены пользователями сайта, и администрация не несёт ответственности за их содержание. Просьба не заливать файлы, защищенные авторскими правами, а также файлы нелегального содержания!