На всех торрентах на трекере установлена скидка на скачивание в размере 100 процентов(а).
 Возможность скачивания торрента НЕ зависит от ограничений при низком ратио, низком аплоаде, требуемом ратио или требуемом аплоаде.


Начать новую тему Ответить на тему
Статистика раздачи
Размер: 7.95 ГБ | Добавлен: 10 сен 2013, 23:54 | Скачали: 0
Сидеров: 0  [0 байт/сек]    Личеров: 0  [0 байт/сек]
Пред. тема | След. тема 

Автор
Сообщение

СообщениеДобавлено: 10 сен 2013, 23:54 

Информация о фильме
    Русское название: Затащи меня в Ад
    Оригинальное название: Drag Me to Hell
    Год выхода: 2009
    Жанр: Ужасы, триллер
    Режиссер: Сэм Рэйми
    Выпущено: США
    Продолжительность: 01:38:57
    Перевод: Дублированный, Профессиональный (многоголосый закадровый) (Киномания), Авторский (одноголосый закадровый) (Ю.Немахов | А.Гаврилов)
    В ролях: Элисон Ломан, Джастин Лонг, Лорна Рэвер, Дилип Рао, Дэвид Пэймер, Адриана Барраза, Челси Росс, Регги Ли, Молли Чик, Бояна Новакович


Сюжет фильма
    Кристина Браун живет в Лос-Анжелесе, работает в банке, оформляя клиентам ссуды, у нее обаятельный и любящий бойфренд, профессор Клэй Далтон. Все складывается хорошо и, казалось, что жизнь удалась…, но только до тех пор, пока в банке не появляется некая миссис Гануш с просьбой об отсрочке ипотечного кредита.
    Кристина и рада бы пойти навстречу старой женщине, но перед ней маячит возможность занять более высокую должность в банке, и она отказывает старухе. В ответ, та накладывает на нее проклятие, и жизнь девушки превращается в непрерывный кошмар. Теперь помочь Кристине может только провидица Шаун Сэн Дена.


Файл
    Качество: BDRip 1080p (исходник Blu-ray Disc)
    Видео: 1920x800, 9080 Кбит/сек, 23,976 кадр/сек, AVC, x264, High@L4.1, 2.40:1, 0.247 Бит/[Пиксели*Кадры], 2pass
    Аудио 1: AC-3, 448 Кбит/сек, 6 канала(ов), 48,0 КГц - Дублированный / Русский
    Аудио 2: AC-3, 448 Кбит/сек, 6 канала(ов), 48,0 КГц - Многоголосый закадровый (Киномания) / Русский
    Аудио 3: AC-3, 448 Кбит/сек, 6 канала(ов), 48,0 КГц - Одноголосый закадровый (Ю.Немахов) / Русский
    Аудио 4: AC-3, 448 Кбит/сек, 6 канала(ов), 48,0 КГц - Одноголосый закадровый (А.Гаврилов) / Русский
    Аудио 5: AC-3, 640 Кбит/сек, 6 канала(ов), 48,0 КГц - Оригинал / Английский
    Субтитры: Русские | Полные, Английские | Полные
    Чаптеры: Есть



Релиз Группа : & Автор Рипа :



Format : Matroska
Format version : Version 4 / Version 2
File size : 7.95 GiB
Duration : 1h 38mn
Overall bit rate : 11.5 Mbps
Movie name : Затащи меня в Ад.(2009).BDRip.1080p.(DVD9).[NoLimits-Team]
Encoded date : UTC 2013-09-10 01:24:22
Writing application : mkvmerge v6.3.0 ('You can't stop me!') built on Jun 28 2013 20:09:41
Writing library : libebml v1.3.0 + libmatroska v1.4.0

Video
ID : 1
Format : AVC
Format/Info : Advanced Video Codec
Format profile : High@L4.1
Format settings, CABAC : Yes
Format settings, ReFrames : 5 frames
Codec ID : V_MPEG4/ISO/AVC
Duration : 1h 38mn
Bit rate : 9 080 Kbps
Width : 1 920 pixels
Height : 800 pixels
Display aspect ratio : 2.40:1
Frame rate mode : Constant
Frame rate : 23.976 fps
Color space : YUV
Chroma subsampling : 4:2:0
Bit depth : 8 bits
Scan type : Progressive
Bits/(Pixel*Frame) : 0.247
Stream size : 6.11 GiB (77%)
Title : Затащи меня в Ад.(2009).BDRip.1080p.(DVD9).[NoLimits-Team]
Writing library : x264 core 138 r2358 9e941d1
Encoding settings : cabac=1 / ref=5 / deblock=1:-3:-3 / analyse=0x3:0x133 / me=umh / subme=11 / psy=1 / psy_rd=1.00:0.00 / mixed_ref=1 / me_range=48 / chroma_me=1 / trellis=2 / 8x8dct=1 / cqm=0 / deadzone=21,11 / fast_pskip=0 / chroma_qp_offset=-2 / threads=12 / lookahead_threads=1 / sliced_threads=0 / nr=0 / decimate=1 / interlaced=0 / bluray_compat=0 / constrained_intra=0 / bframes=6 / b_pyramid=2 / b_adapt=2 / b_bias=0 / direct=3 / weightb=1 / open_gop=0 / weightp=2 / keyint=240 / keyint_min=23 / scenecut=40 / intra_refresh=0 / rc=2pass / mbtree=0 / bitrate=9080 / ratetol=2.0 / qcomp=0.60 / qpmin=0 / qpmax=69 / qpstep=4 / cplxblur=20.0 / qblur=0.5 / ip_ratio=1.40 / pb_ratio=1.30 / aq=1:0.90
Language : English
Default : Yes
Forced : No

Audio #1
ID : 2
Format : AC-3
Format/Info : Audio Coding 3
Mode extension : CM (complete main)
Format settings, Endianness : Big
Codec ID : A_AC3
Duration : 1h 38mn
Bit rate mode : Constant
Bit rate : 448 Kbps
Channel(s) : 6 channels
Channel positions : Front: L C R, Side: L R, LFE
Sampling rate : 48.0 KHz
Bit depth : 16 bits
Compression mode : Lossy
Stream size : 317 MiB (4%)
Title : Дублированный
Language : Russian
Default : Yes
Forced : No

Audio #2
ID : 3
Format : AC-3
Format/Info : Audio Coding 3
Mode extension : CM (complete main)
Format settings, Endianness : Big
Codec ID : A_AC3
Duration : 1h 38mn
Bit rate mode : Constant
Bit rate : 448 Kbps
Channel(s) : 6 channels
Channel positions : Front: L C R, Side: L R, LFE
Sampling rate : 48.0 KHz
Bit depth : 16 bits
Compression mode : Lossy
Stream size : 317 MiB (4%)
Title : Киномания
Language : Russian
Default : No
Forced : No

Audio #3
ID : 4
Format : AC-3
Format/Info : Audio Coding 3
Mode extension : CM (complete main)
Format settings, Endianness : Big
Codec ID : A_AC3
Duration : 1h 38mn
Bit rate mode : Constant
Bit rate : 448 Kbps
Channel(s) : 6 channels
Channel positions : Front: L C R, Side: L R, LFE
Sampling rate : 48.0 KHz
Bit depth : 16 bits
Compression mode : Lossy
Stream size : 317 MiB (4%)
Title : Немахов
Language : Russian
Default : No
Forced : No

Audio #4
ID : 5
Format : AC-3
Format/Info : Audio Coding 3
Mode extension : CM (complete main)
Format settings, Endianness : Big
Codec ID : A_AC3
Duration : 1h 38mn
Bit rate mode : Constant
Bit rate : 448 Kbps
Channel(s) : 6 channels
Channel positions : Front: L C R, Side: L R, LFE
Sampling rate : 48.0 KHz
Bit depth : 16 bits
Compression mode : Lossy
Stream size : 317 MiB (4%)
Title : Гаврилов
Language : Russian
Default : No
Forced : No

Audio #5
ID : 6
Format : AC-3
Format/Info : Audio Coding 3
Mode extension : CM (complete main)
Format settings, Endianness : Big
Codec ID : A_AC3
Duration : 1h 38mn
Bit rate mode : Constant
Bit rate : 640 Kbps
Channel(s) : 6 channels
Channel positions : Front: L C R, Side: L R, LFE
Sampling rate : 48.0 KHz
Bit depth : 16 bits
Compression mode : Lossy
Stream size : 453 MiB (6%)
Title : Оригинал
Language : English
Default : No
Forced : No

Text #1
ID : 7
Format : UTF-8
Codec ID : S_TEXT/UTF8
Codec ID/Info : UTF-8 Plain Text
Title : Полные
Language : Russian
Default : No
Forced : No

Text #2
ID : 8
Format : UTF-8
Codec ID : S_TEXT/UTF8
Codec ID/Info : UTF-8 Plain Text
Title : Full
Language : English
Default : No
Forced : No

Menu
00:00:00.000 : :Chapter 01
00:05:28.453 : :Chapter 02
00:10:43.726 : :Chapter 03
00:16:38.038 : :Chapter 04
00:22:34.102 : :Chapter 05
00:29:36.941 : :Chapter 06
00:35:46.894 : :Chapter 07
00:40:37.393 : :Chapter 08
00:45:49.913 : :Chapter 09
00:51:32.923 : :Chapter 10
00:59:11.089 : :Chapter 11
01:07:01.642 : :Chapter 12
01:13:09.885 : :Chapter 13
01:19:52.662 : :Chapter 14
01:25:13.066 : :Chapter 15
01:34:07.850 : :Chapter 16



В начале фильма присутствуют не отключаемые субтитры.
загрузка...
Правила, инструкции, FAQ!!!
Торрент  Добавлен [10 сен 2013, 23:54] Скачать торрент
Скачать торрент
[ Размер 40.18 КБ / Просмотров 3 ]

Статус  
 
Размер  7.95 ГБ
Приватный: Нет (DHT включён)
.torrent скачан  0
Как залить торрент? | Как скачать Torrent? | Как смотреть и слушать онлайн?  


     Отправить личное сообщение
   
Страница 1 из 1
Показать сообщения за:  Поле сортировки  
Начать новую тему Ответить на тему

   Похожие торренты   Автор   Ответы   Просмотры   Последнее сообщение 
В этой теме нет новых непрочитанных сообщений. Скачать торрент Затащи меня в Ад / Drag Me to Hell (Сэм Рэйми / Sam Raimi) [2009 г., Ужасы, Триллер, BDRip] MVO (Киномания) + AVO (Немахов) + original + rus sub

в форуме Ужасы, Размер: 2.18 ГБ, Здоровье: 0%

Anonymous

0
0|0

32
0

12 фев 2014, 11:47

Anonymous Перейти к последнему сообщению

В этой теме нет новых непрочитанных сообщений. Скачать торрент Проверен Киллер Джо / Killer Joe (2011) BDRip 1080p | Unrated | D, L2

в форуме 720p | 1080p, Размер: 7.76 ГБ, Здоровье: 100%

Гость

0
106|101

76
100

25 июл 2015, 22:56

Гость Перейти к последнему сообщению

В этой теме нет новых непрочитанных сообщений. Скачать торрент Проверен Чужой против Хищника / AVP: Alien vs. Predator (2004) BDRip 1080p | D, Р, А | UNRATED

в форуме 720p | 1080p, Размер: 15.73 ГБ, Здоровье: 100%

Гость

0
14|6

128
2

17 окт 2015, 18:35

Гость Перейти к последнему сообщению

В этой теме нет новых непрочитанных сообщений. Скачать торрент Полупрофессионал / Semi-Pro [Unrated] (Кент Альтерман) [1080p] [2008 г., комедия, спорт, BDRip]

в форуме 720p | 1080p, Размер: 8.26 ГБ, Здоровье: 0%

Anonymous

0
0|0

20
1

25 фев 2014, 22:41

Anonymous Перейти к последнему сообщению

В этой теме нет новых непрочитанных сообщений. Скачать торрент Проверен Соседка / Neighbor (2009) BDRip | L1 | UNRATED

в форуме Ужасы, Размер: 1.21 ГБ, Здоровье: 100%

Anonymous

0
14|3

148
18

18 май 2015, 22:06

Anonymous Перейти к последнему сообщению



Сейчас этот форум просматривают: нет зарегистрированных пользователей и гости: 3


Вы не можете начинать темы
Вы не можете отвечать на сообщения
Вы не можете редактировать свои сообщения
Вы не можете удалять свои сообщения
Вы не можете добавлять вложения

Перейти:  

!ВНИМАНИЕ!
 Ресурс не предоставляет электронные версии произведений, а занимается лишь коллекционированием и каталогизацией ссылок, присылаемых и публикуемых на форуме нашими читателями. Если вы являетесь правообладателем какого-либо представленного материала и не желаете чтобы ссылка на него находилась в нашем каталоге, свяжитесь с нами и мы незамедлительно удалим её. Файлы для обмена на трекере предоставлены пользователями сайта, и администрация не несёт ответственности за их содержание. Просьба не заливать файлы, защищенные авторскими правами, а также файлы нелегального содержания!