На всех торрентах на трекере установлена скидка на скачивание в размере 100 процентов(а).
 Возможность скачивания торрента НЕ зависит от ограничений при низком ратио, низком аплоаде, требуемом ратио или требуемом аплоаде.


Начать новую тему Ответить на тему
Статистика раздачи
Размер: 8.02 ГБ | Добавлен: 09 сен 2013, 23:48 | Скачали: 6
Сидеров: 3  [0 байт/сек]    Личеров: 1  [0 байт/сек]
Пред. тема | След. тема 

Автор
Сообщение

СообщениеДобавлено: 09 сен 2013, 23:48 

Информация о фильме
Название: Цунами [Расширенная версия]
Оригинальное название: Haeundae (Tidal Wave) [Extended Cut]
Год выхода: 2009
Жанр: Боевик, триллер, драма
Режиссер: Юн Дже-Гюн
В ролях: Кьюнг-гу Сол, Чжи Вон Ха, Чун-Хун Парк, Мин-ки Ли, Ин-квон Ким

О фильме:
Бусан расположен на юго-восточной оконечности корейского полуострова. Популярный курорт Хэундэ ежегодно притягивает на свои берега миллионы туристов. Масик — местный, который несколько лет назад во время цунами потерял в море своего друга. С тех пор он не возвращался к своему прежнему занятию, ловле рыбы. Теперь он ведёт простую жизнь, занимается маленьким рыбным ресторанчиком и никак не решится сделать предложение девушке, которая очень ему нравится.

В то же время профессор института океанологии приходит к выводу, что с каждым годом небывалое до того на корейских берегах цунами становиться всё большей реальностью. Об этом говорят приборы. Он пытается убедить в этом своё руководство. И требует срочно эвакуировать миллион человек. Но возможно он ошибается…

Страна: Южная Корея
Продолжительность: 02:00:15
Перевод: Многоголосый профессиональный закадровый (R5), одноголосый любительский закадровый (@Acolith)

Файл
Кодек: MPEG4-AVC
Качество: BDRip 1080p
Видео: 1904x816, 8000 kbps, 23.976 fps
Звук:
Аудио #1: AC3, 6 ch, 448 kbps, 48 kHz - многоголосый
Аудио #2: AC3, 6 ch, 448 kbps, 48 kHz - одноголосый
Аудио #3: AC3, 6 ch, 640 kbps, 48 kHz - английский
Субтитры: Русские, английские


Format : Matroska
Format version : Version 2
File size : 8.02 GiB
Duration : 2h 0mn
Overall bit rate : 9 542 Kbps
Encoded date : UTC 2013-09-09 03:39:26
Writing application : mkvmerge v6.2.0 ('Promised Land') built on Apr 28 2013 12:22:01
Writing library : libebml v1.3.0 + libmatroska v1.4.0

Video
ID : 1
Format : AVC
Format/Info : Advanced Video Codec
Format profile : High@L4.1
Format settings, CABAC : Yes
Format settings, ReFrames : 4 frames
Format settings, GOP : M=4, N=24
Codec ID : V_MPEG4/ISO/AVC
Duration : 2h 0mn
Bit rate mode : Variable
Bit rate : 7 999 Kbps
Maximum bit rate : 14.0 Mbps
Width : 1 904 pixels
Height : 816 pixels
Display aspect ratio : 2.35:1
Frame rate : 23.976 fps
Color space : YUV
Chroma subsampling : 4:2:0
Bit depth : 8 bits
Scan type : Progressive
Bits/(Pixel*Frame) : 0.215
Stream size : 6.57 GiB (82%)
Writing library : x264 core 133 r2334 a3ac64b
Encoding settings : cabac=1 / ref=5 / deblock=1:-1:-1 / analyse=0x3:0x133 / me=tesa / subme=11 / psy=1 / psy_rd=1.00:0.15 / mixed_ref=1 / me_range=24 / chroma_me=1 / trellis=2 / 8x8dct=1 / cqm=0 / deadzone=21,11 / fast_pskip=0 / chroma_qp_offset=-3 / threads=12 / lookahead_threads=1 / sliced_threads=0 / slices=4 / nr=0 / decimate=1 / interlaced=0 / bluray_compat=1 / constrained_intra=0 / bframes=3 / b_pyramid=1 / b_adapt=1 / b_bias=0 / direct=3 / weightb=1 / open_gop=1 / weightp=1 / keyint=230 / keyint_min=1 / scenecut=40 / intra_refresh=0 / rc_lookahead=60 / rc=2pass / mbtree=1 / bitrate=7999 / ratetol=1.0 / qcomp=0.60 / qpmin=0 / qpmax=69 / qpstep=4 / cplxblur=20.0 / qblur=0.5 / vbv_maxrate=14000 / vbv_bufsize=14000 / nal_hrd=vbr / ip_ratio=1.40 / aq=1:1.00
Language : English

Audio #1
ID : 2
Format : AC-3
Format/Info : Audio Coding 3
Mode extension : CM (complete main)
Codec ID : A_AC3
Duration : 2h 0mn
Bit rate mode : Constant
Bit rate : 448 Kbps
Channel(s) : 6 channels
Channel positions : Front: L C R, Side: L R, LFE
Sampling rate : 48.0 KHz
Bit depth : 16 bits
Compression mode : Lossy
Stream size : 385 MiB (5%)
Title : многоголосый
Language : Russian

Audio #2
ID : 3
Format : AC-3
Format/Info : Audio Coding 3
Mode extension : CM (complete main)
Codec ID : A_AC3
Duration : 2h 0mn
Bit rate mode : Constant
Bit rate : 448 Kbps
Channel(s) : 6 channels
Channel positions : Front: L C R, Side: L R, LFE
Sampling rate : 48.0 KHz
Bit depth : 16 bits
Compression mode : Lossy
Stream size : 385 MiB (5%)
Title : Одноголосый
Language : Russian

Audio #3
ID : 4
Format : AC-3
Format/Info : Audio Coding 3
Mode extension : CM (complete main)
Codec ID : A_AC3
Duration : 2h 0mn
Bit rate mode : Constant
Bit rate : 640 Kbps
Channel(s) : 6 channels
Channel positions : Front: L C R, Side: L R, LFE
Sampling rate : 48.0 KHz
Bit depth : 16 bits
Compression mode : Lossy
Stream size : 551 MiB (7%)
Title : Английский
Language : English

Text #1
ID : 5
Format : PGS
Muxing mode : zlib
Codec ID : S_HDMV/PGS
Codec ID/Info : The same subtitle format used on BDs/HD-DVDs
Title : Русские
Language : English

Text #2
ID : 6
Format : PGS
Muxing mode : zlib
Codec ID : S_HDMV/PGS
Codec ID/Info : The same subtitle format used on BDs/HD-DVDs
Title : Английские
Language : Russian

Menu
00:00:00.000 : en:00:00:00.000
00:09:34.699 : en:00:09:34.699
00:17:07.443 : en:00:17:07.443
00:24:08.280 : en:00:24:08.280
00:34:20.642 : en:00:34:20.642
00:41:26.984 : en:00:41:26.984
00:49:23.586 : en:00:49:23.586
00:57:20.312 : en:00:57:20.312
01:04:05.759 : en:01:04:05.759
01:11:13.769 : en:01:11:13.769
01:20:29.658 : en:01:20:29.658
01:27:44.259 : en:01:27:44.259
01:35:22.467 : en:01:35:22.467
01:44:07.366 : en:01:44:07.366
01:49:38.572 : en:01:49:38.572
01:56:15.385 : en:01:56:15.385


Релиз от
загрузка...
Правила, инструкции, FAQ!!!
Торрент  Добавлен [09 сен 2013, 23:48] Скачать торрент
Скачать торрент
[ Размер 40.48 КБ / Просмотров 4 ]

Статус  
 
Размер  8.02 ГБ
Приватный: Нет (DHT включён)
.torrent скачан  6
Как залить торрент? | Как скачать Torrent? | Как смотреть и слушать онлайн?  


     Отправить личное сообщение
   
Страница 1 из 1
Показать сообщения за:  Поле сортировки  
Начать новую тему Ответить на тему

   Похожие торренты   Автор   Ответы   Просмотры   Последнее сообщение 
В этой теме нет новых непрочитанных сообщений. Скачать торрент Код Да Винчи / The Da Vinci Code (2006) BDRip 1080p | Расширенная версия / Extended Cut

в форуме 720p | 1080p, Размер: 7.94 ГБ, Здоровье: 100%

Anonymous

0
45|4

56
89

05 фев 2014, 21:49

Anonymous Перейти к последнему сообщению

В этой теме нет новых непрочитанных сообщений. Скачать торрент Аватар / Avatar (Джеймс Кэмерон / James Cameron) [2009 г., фантастика, BDRip-AVC] [Расширенная версия / Extended Cut] Dub

в форуме Фантастика, Фэнтези, Размер: 2.91 ГБ, Здоровье: 100%

Anonymous

0
168|11

89
3

01 апр 2014, 09:36

Anonymous Перейти к последнему сообщению

В этой теме нет новых непрочитанных сообщений. Скачать торрент Проверен Пятница 13-е (Расширенная версия) / Friday the 13th (Extended Cut) (Маркус Ниспел / Marcus Nispel) [2009, США, ужасы BDRip, 480p] Dub + DVO + Original + sub (rus, eng)

в форуме Фильмы для iPod, iPhone, iPad, Размер: 1.52 ГБ, Здоровье: 100%

Anonymous

0
34|4

88
1

11 май 2015, 01:32

Anonymous Перейти к последнему сообщению

В этой теме нет новых непрочитанных сообщений. Скачать торрент Ангелы и Демоны / Angels & Demons (Рон Ховард / Ron Howard) [2009 г., триллер, детектив, BDRip] [расширенная версия / extended edition] Dub (вставки MVO)

в форуме Триллеры, Размер: 2.18 ГБ, Здоровье: 100%

Anonymous

0
34|11

43
0

05 фев 2014, 22:19

Anonymous Перейти к последнему сообщению

В этой теме нет новых непрочитанных сообщений. Скачать торрент Рыцарь дня / Knight and Day (Джеймс Мэнголд / James Mangold) [2010, США, Боевик, комедия, приключения, BDRip] [Расширенная версия / Extended cut] Dub

в форуме Боевики, Размер: 1.46 ГБ, Здоровье: 100%

Anonymous

0
56|19

38
0

16 апр 2014, 07:48

Anonymous Перейти к последнему сообщению



Сейчас этот форум просматривают: нет зарегистрированных пользователей и гости: 1


Вы не можете начинать темы
Вы не можете отвечать на сообщения
Вы не можете редактировать свои сообщения
Вы не можете удалять свои сообщения
Вы не можете добавлять вложения

Перейти:  

!ВНИМАНИЕ!
 Ресурс не предоставляет электронные версии произведений, а занимается лишь коллекционированием и каталогизацией ссылок, присылаемых и публикуемых на форуме нашими читателями. Если вы являетесь правообладателем какого-либо представленного материала и не желаете чтобы ссылка на него находилась в нашем каталоге, свяжитесь с нами и мы незамедлительно удалим её. Файлы для обмена на трекере предоставлены пользователями сайта, и администрация не несёт ответственности за их содержание. Просьба не заливать файлы, защищенные авторскими правами, а также файлы нелегального содержания!