На всех торрентах на трекере установлена скидка на скачивание в размере 100 процентов(а).
 Возможность скачивания торрента НЕ зависит от ограничений при низком ратио, низком аплоаде, требуемом ратио или требуемом аплоаде.


Начать новую тему Ответить на тему
Статистика раздачи
Размер: 6.62 ГБ | Добавлен: 09 сен 2013, 15:42 | Скачали: 0
Сидеров: 0  [0 байт/сек]    Личеров: 0  [0 байт/сек]
Пред. тема | След. тема 

Автор
Сообщение

СообщениеДобавлено: 09 сен 2013, 15:42 

Название: Брат якудзы
Оригинальное название: Brother
Год выпуска: 2000
Жанр: Триллер, драма, криминал
Выпущено: США, Великобритания, Япония, Bandai Visual Co. Ltd., Fuzzy Bunny Films (I), Little Brother Inc., Office Kitano, Recorded Picture Company (RPC), Tokyo FM Broadcasting Co. Ltd.
Режиссер: Такеши Китано
В ролях: Такеши Китано, Омар Эппс, Куроудо Маки, Масая Като, Сусуму Тэрадзима, Ройял Уоткинс, Ломбардо Бойяр, Рен Осуги, Рё Исибаси, Джеймс Шигета, Татьяна Али, Макото Отакэ, Коен Окумура, Наомаса Мусака, Рино Катасе, Тетсуя Ватари, Рен Мураками, Джой Накагава, Ванда-Ли Эванс, Тони Колитти, Коё Инто, Алан Марко, Энтвон Тэннер, Джозеф Раньо, Нинно Али, Пол Феддерсен, Дэн Гюнтер, Роберт Коваррубиас, Энтони Вацула, Аль Висенте, Луис Энджел, Брэдли Джей Лесли, Лобо Себастьян, Томас Чавез, Дон Сато, Хидео Кимура, Яуи Отани

О фильме: После разгрома родного мафиозного клана боевик Аники Ямамото по прозвищу Старший Брат бежит из Японии в Америку. Здесь его встречает чужой, но не менее жестокий, мир безжалостной борьбы за власть в преступной среде, в которой Ямамото решительно отвоёвывает себе место, следуя древнему кодексу «якудзы». Полагаясь только на свои силы и дорожа верными друзьями, он в одиночку ведёт войну с врагами, зная, что в самом конце кровавого пути его ждет триумф или смерть.

Качество: BDRip 720p
Размер: 6.61 ГБ
Продолжительность: 01:53:21

Видео: MPEG-4 AVC, 5565 Кбит/с, 1280x690
Аудио 1: русский, 48 kHz, AC3, 6 ch, 384 kbps avg, [Профессиональный многоголосый]
Аудио 2: русский, 48 kHz, AC3, 6 ch, 448 kbps avg, [Профессиональный двухголосый]
Аудио 3: русский, 48 kHz, AC3, 6 ch, 448 kbps avg, Сергей Кузнецов [Авторский]
Аудио 4: русский, 48 kHz, AC3, 6 ch, 448 kbps avg, Сергей Рябов [Авторский]
Аудио 5: русский, 48 kHz, AC3, 6 ch, 448 kbps avg, Дмитрий Пучков - Гоблин [Авторский]
Аудио 6: английский + японский, 48 kHz, AC3, 6 ch, 448 kbps avg, [Оригинал]
Субтитры 1: русские
Субтитры 2: английские





euro-banan

Китано, который за всю свою карьеру не снял, пожалуй, ни одного вменяемого фильма про мафию, при том, что все его гангста-муви неизменно хороши и притягательны, в «Брате…», пожалуй, ближе всего подобрался к канонической норме и, к своему удивлению, кем-то даже оказался воспринят на полном серьезе.
В действительности же его якобы политкорректная проамериканская эпопея о становлении мафиозного клана в США под надзором до неприличия жестого беженца из страны восходящего солнца откровенно осмеивает жанр, как бы говоря своей ехидной улыбкой зрителю, чтобы не ожидал пафосных восхвалений вседозволенности и уклонов в сторону романтического биопика о тяжелой судьбе очередного крестного отца. И пока истинные американские бандиты в дорогих костюмах и с лакированными прическами рассуждают о правилах и этикете бизнеса, Китано с издевательским хладнокровием всаживает им свинцовые пули между глаз.

8 из 10

Кинопоиск
---[Information] [08.09.2013 21:21:26] avs [info]: 1280x690p 1:1 @ 24/1 fps (cfr)
---[Information] [08.09.2013 21:21:26] x264 [info]: using SAR=1/1
---[Information] [08.09.2013 21:21:26] x264 [info]: using cpu capabilities: MMX2 SSE2Fast SSSE3 SSE4.2
---[Information] [08.09.2013 21:21:26] x264 [info]: profile High, level 4.1
---[Information] [09.09.2013 8:21:12] x264 [info]: frame I:997 Avg QP:18.11 size:110922
---[Information] [09.09.2013 8:21:15] x264 [info]: frame P:27553 Avg QP:18.87 size: 46049
---[Information] [09.09.2013 8:21:15] x264 [info]: frame B:134655 Avg QP:21.78 size: 25922
---[Information] [09.09.2013 8:21:15] x264 [info]: consecutive B-frames: 0.9% 0.6% 1.7% 5.1% 11.3% 50.0% 11.4% 4.7% 14.2%
---[Information] [09.09.2013 8:21:15] x264 [info]: mb I I16..4: 11.7% 75.0% 13.2%
---[Information] [09.09.2013 8:21:15] x264 [info]: mb P I16..4: 1.7% 17.7% 1.6% P16..4: 38.1% 23.6% 11.5% 0.0% 0.0% skip: 5.9%
---[Information] [09.09.2013 8:21:15] x264 [info]: mb B I16..4: 0.2% 3.8% 0.1% B16..8: 39.5% 11.9% 3.0% direct:11.0% skip:30.6% L0:49.9% L1:41.6% BI: 8.6%
---[Information] [09.09.2013 8:21:15] x264 [info]: 8x8 transform intra:87.5% inter:61.2%
---[Information] [09.09.2013 8:21:15] x264 [info]: coded y,uvDC,uvAC intra: 87.2% 62.1% 34.8% inter: 36.4% 22.7% 1.6%
---[Information] [09.09.2013 8:21:15] x264 [info]: i16 v,h,dc,p: 41% 13% 23% 22%
---[Information] [09.09.2013 8:21:15] x264 [info]: i8 v,h,dc,ddl,ddr,vr,hd,vl,hu: 9% 7% 18% 9% 12% 10% 11% 10% 12%
---[Information] [09.09.2013 8:21:15] x264 [info]: i4 v,h,dc,ddl,ddr,vr,hd,vl,hu: 28% 7% 7% 8% 11% 11% 10% 9% 10%
---[Information] [09.09.2013 8:21:15] x264 [info]: i8c dc,h,v,p: 47% 26% 17% 9%
---[Information] [09.09.2013 8:21:15] x264 [info]: Weighted P-Frames: Y:8.2% UV:1.4%
---[Information] [09.09.2013 8:21:15] x264 [info]: ref P L0: 34.2% 7.8% 17.9% 9.8% 8.2% 7.1% 6.2% 4.4% 4.0% 0.4% 0.0%
---[Information] [09.09.2013 8:21:15] x264 [info]: ref B L0: 51.3% 16.6% 11.5% 6.7% 5.8% 4.9% 2.6% 0.7%
---[Information] [09.09.2013 8:21:15] x264 [info]: ref B L1: 83.8% 16.2%
---[Information] [09.09.2013 8:21:15] x264 [info]: kb/s:5729.14
---[Information] [09.09.2013 8:21:15] encoded 163205 frames, 4.12 fps, 5729.14 kb/s
--[Information] [09.09.2013 8:21:19] Final statistics
---[Information] [09.09.2013 8:21:19] Constant Quality Mode: Quality 20 computed...
---[Information] [09.09.2013 8:21:19] Video Bitrate Obtained (approximate): 5730 kbit/s
--[Information] [09.09.2013 8:21:19] MediaInfo
---[Information] File: E:RipBrat.Jakudzy.2000.x264.BDRipBrat.Jakudzy.2000.x264.BDRip.720p.mkv
Общее
Уникальный идентификатор : 210877596805101730279951110258936285145 (0x9EA58C3E810A70E69C1504CB155C87D9)
Полное имя : E:VideoBrat.Jakudzy.2000.x264.BDRip.720p.mkv
Формат : Matroska
Версия формата : Version 4 / Version 2
Размер файла : 6,62 Гбайт
Продолжительность : 1 ч. 53 м.
Общий поток : 8355 Кбит/сек
Название фильма : Брат якудзы / Brother / 2000 / BDRip -- STarankov
Дата кодирования : UTC 2013-09-09 01:32:37
Программа кодирования : mkvmerge v6.3.0 ('You can't stop me!') built on Jun 28 2013 20:09:41
Библиотека кодирования : libebml v1.3.0 + libmatroska v1.4.0

Видео
Идентификатор : 1
Формат : AVC
Формат/Информация : Advanced Video Codec
Профиль формата : High@L4.1
Параметр CABAC формата : Да
Параметр ReFrames формата : 9 кадров
Идентификатор кодека : V_MPEG4/ISO/AVC
Продолжительность : 1 ч. 53 м.
Битрейт : 5565 Кбит/сек
Ширина : 1280 пикселей
Высота : 690 пикселей
Соотношение сторон : 1,85:1
Режим частоты кадров : Постоянный
Частота кадров : 24,000 кадра/сек
Цветовое пространство : YUV
Субдискретизация насыщенности : 4:2:0
Битовая глубина : 8 бит
Тип развёртки : Прогрессивная
Бит/(Пиксели*Кадры) : 0.263
Размер потока : 4,41 Гбайт (67%)
Библиотека кодирования : x264 core 138 r2358 9e941d1
Настройки программы : cabac=1 / ref=9 / deblock=1:-2:-2 / analyse=0x3:0x113 / me=umh / subme=10 / psy=1 / psy_rd=1.00:0.15 / mixed_ref=1 / me_range=24 / chroma_me=1 / trellis=2 / 8x8dct=1 / cqm=0 / deadzone=21,11 / fast_pskip=0 / chroma_qp_offset=-3 / threads=6 / lookahead_threads=1 / sliced_threads=0 / nr=0 / decimate=1 / interlaced=0 / bluray_compat=0 / constrained_intra=0 / bframes=8 / b_pyramid=2 / b_adapt=2 / b_bias=0 / direct=1 / weightb=1 / open_gop=0 / weightp=2 / keyint=230 / keyint_min=23 / scenecut=40 / intra_refresh=0 / rc_lookahead=40 / rc=crf / mbtree=0 / crf=20.0 / qcomp=0.60 / qpmin=0 / qpmax=69 / qpstep=4 / vbv_maxrate=50000 / vbv_bufsize=62500 / crf_max=0.0 / nal_hrd=none / ip_ratio=1.40 / pb_ratio=1.30 / aq=1:1.00
Язык : Japanese
Default : Да
Forced : Нет

Аудио #1
Идентификатор : 2
Формат : AC-3
Формат/Информация : Audio Coding 3
Расширение режима : CM (complete main)
Параметр Endianness формата : Big
Идентификатор кодека : A_AC3
Продолжительность : 1 ч. 53 м.
Вид битрейта : Постоянный
Битрейт : 384 Кбит/сек
Каналы : 6 каналов
Расположение каналов : Front: L C R, Side: L R, LFE
Частота : 48,0 КГц
Битовая глубина : 16 бит
Метод сжатия : С потерями
Размер потока : 311 Мбайт (5%)
Заголовок : MVO
Язык : Russian
Default : Да
Forced : Нет

Аудио #2
Идентификатор : 3
Формат : AC-3
Формат/Информация : Audio Coding 3
Расширение режима : CM (complete main)
Параметр Endianness формата : Big
Идентификатор кодека : A_AC3
Продолжительность : 1 ч. 53 м.
Вид битрейта : Постоянный
Битрейт : 448 Кбит/сек
Каналы : 6 каналов
Расположение каналов : Front: L C R, Side: L R, LFE
Частота : 48,0 КГц
Битовая глубина : 16 бит
Метод сжатия : С потерями
Размер потока : 363 Мбайт (5%)
Заголовок : DVO
Язык : Russian
Default : Нет
Forced : Нет

Аудио #3
Идентификатор : 4
Формат : AC-3
Формат/Информация : Audio Coding 3
Расширение режима : CM (complete main)
Параметр Endianness формата : Big
Идентификатор кодека : A_AC3
Продолжительность : 1 ч. 53 м.
Вид битрейта : Постоянный
Битрейт : 448 Кбит/сек
Каналы : 6 каналов
Расположение каналов : Front: L C R, Side: L R, LFE
Частота : 48,0 КГц
Битовая глубина : 16 бит
Метод сжатия : С потерями
Размер потока : 363 Мбайт (5%)
Заголовок : AVO (Сергей Кузнецов)
Язык : Russian
Default : Нет
Forced : Нет

Аудио #4
Идентификатор : 5
Формат : AC-3
Формат/Информация : Audio Coding 3
Расширение режима : CM (complete main)
Параметр Endianness формата : Big
Идентификатор кодека : A_AC3
Продолжительность : 1 ч. 53 м.
Вид битрейта : Постоянный
Битрейт : 448 Кбит/сек
Каналы : 6 каналов
Расположение каналов : Front: L C R, Side: L R, LFE
Частота : 48,0 КГц
Битовая глубина : 16 бит
Метод сжатия : С потерями
Размер потока : 363 Мбайт (5%)
Заголовок : AVO (Сергей Рябов)
Язык : Russian
Default : Нет
Forced : Нет

Аудио #5
Идентификатор : 6
Формат : AC-3
Формат/Информация : Audio Coding 3
Расширение режима : CM (complete main)
Параметр Endianness формата : Big
Идентификатор кодека : A_AC3
Продолжительность : 1 ч. 53 м.
Вид битрейта : Постоянный
Битрейт : 448 Кбит/сек
Каналы : 6 каналов
Расположение каналов : Front: L C R, Side: L R, LFE
Частота : 48,0 КГц
Битовая глубина : 16 бит
Метод сжатия : С потерями
Размер потока : 363 Мбайт (5%)
Заголовок : AVO (Дмитрий Пучков - Гоблин)
Язык : Russian
Default : Нет
Forced : Нет

Аудио #6
Идентификатор : 7
Формат : AC-3
Формат/Информация : Audio Coding 3
Расширение режима : CM (complete main)
Параметр Endianness формата : Big
Идентификатор кодека : A_AC3
Продолжительность : 1 ч. 53 м.
Вид битрейта : Постоянный
Битрейт : 448 Кбит/сек
Каналы : 6 каналов
Расположение каналов : Front: L C R, Side: L R, LFE
Частота : 48,0 КГц
Битовая глубина : 16 бит
Метод сжатия : С потерями
Размер потока : 363 Мбайт (5%)
Заголовок : Original
Язык : Japanese
Default : Нет
Forced : Нет

Текст #1
Идентификатор : 8
Формат : UTF-8
Идентификатор кодека : S_TEXT/UTF8
Идентификатор кодека/Информация : UTF-8 Plain Text
Заголовок : русский
Язык : Russian
Default : Нет
Forced : Нет

Текст #2
Идентификатор : 9
Формат : UTF-8
Идентификатор кодека : S_TEXT/UTF8
Идентификатор кодека/Информация : UTF-8 Plain Text
Заголовок : английский
Default : Нет
Forced : Нет




загрузка...
Правила, инструкции, FAQ!!!
Торрент  Добавлен [09 сен 2013, 15:42] Скачать торрент
Скачать торрент
[ Размер 33.53 КБ / Просмотров 6 ]

Статус  
 
Размер  6.62 ГБ
Приватный: Нет (DHT включён)
.torrent скачан  0
Как залить торрент? | Как скачать Torrent? | Как смотреть и слушать онлайн?  


     Отправить личное сообщение
   
Страница 1 из 1
Показать сообщения за:  Поле сортировки  
Начать новую тему Ответить на тему

   Похожие торренты   Автор   Ответы   Просмотры   Последнее сообщение 
В этой теме нет новых непрочитанных сообщений. Скачать торрент О, где же ты, брат? / O Brother, Where Art Thou? (Джоэл Коэн / Joel Coen, Итэн Коэн / Ethan Coen) [2000, комедия, приключения, криминал, BDRip 720p] DUB

в форуме 720p | 1080p, Размер: 7.83 ГБ, Здоровье: 0%

Anonymous

0
0|0

38
0

25 фев 2014, 22:40

Anonymous Перейти к последнему сообщению

В этой теме нет новых непрочитанных сообщений. Скачать торрент Проверен [iPhone] О, где же ты, брат? / O Brother, Where Art Thou? (Джоэл Коэн / Joel Coen, Итэн Коэн / Ethan Coen) [2000, черная комедия, приключения, криминал, HDRip] Dub + AVO + Original + Sub

в форуме Фильмы для iPod, iPhone, iPad, Размер: 867.33 МБ, Здоровье: 100%

Гость

0
1|0

19
0

14 май 2015, 00:00

Гость Перейти к последнему сообщению

В этой теме нет новых непрочитанных сообщений. Скачать торрент Брат воина / The Warrior's Brother / Frere du guerrier, Le (Пьер Жоливе / Pierre Jolivet) [2002 г., Приключенческий боевик, DVDRip]

в форуме Боевики, Размер: 1.36 ГБ, Здоровье: 100%

Anonymous

0
5|2

44
1

29 апр 2014, 13:54

Anonymous Перейти к последнему сообщению

В этой теме нет новых непрочитанных сообщений. Скачать торрент Проверен (Rock) Брат 2 супер (2000-2004), MP3, 192-256 kbs

в форуме Русский Рок, Размер: 658.86 МБ, Здоровье: 100%

Anonymous

0
157|8

38
2

23 авг 2016, 11:16

Anonymous Перейти к последнему сообщению

В этой теме нет новых непрочитанных сообщений. Скачать торрент Дзюнъити Сага | Исповедь Якудзы [2009] [FB2]

в форуме Детективы и Боевики, Размер: 570.53 КБ, Здоровье: 100%

Anonymous

0
5|1

16
0

18 апр 2014, 00:28

Anonymous Перейти к последнему сообщению



Сейчас этот форум просматривают: нет зарегистрированных пользователей и гости: 2


Вы не можете начинать темы
Вы не можете отвечать на сообщения
Вы не можете редактировать свои сообщения
Вы не можете удалять свои сообщения
Вы не можете добавлять вложения

Перейти:  

!ВНИМАНИЕ!
 Ресурс не предоставляет электронные версии произведений, а занимается лишь коллекционированием и каталогизацией ссылок, присылаемых и публикуемых на форуме нашими читателями. Если вы являетесь правообладателем какого-либо представленного материала и не желаете чтобы ссылка на него находилась в нашем каталоге, свяжитесь с нами и мы незамедлительно удалим её. Файлы для обмена на трекере предоставлены пользователями сайта, и администрация не несёт ответственности за их содержание. Просьба не заливать файлы, защищенные авторскими правами, а также файлы нелегального содержания!