На всех торрентах на трекере установлена скидка на скачивание в размере 100 процентов(а).
 Возможность скачивания торрента НЕ зависит от ограничений при низком ратио, низком аплоаде, требуемом ратио или требуемом аплоаде.


Начать новую тему Ответить на тему
Статистика раздачи
Размер: 7.94 ГБ | Добавлен: 09 сен 2013, 15:38 | Скачали: 0
Сидеров: 0  [0 байт/сек]    Личеров: 0  [0 байт/сек]
Пред. тема | След. тема 

Автор
Сообщение

СообщениеДобавлено: 09 сен 2013, 15:38 

Информация о фильме
    Русское название: Глаз
    Оригинальное название: The Eye
    Год выхода: 2008
    Жанр: Ужасы, триллер, драма
    Режиссер: Дэвид Моро, Ксавьер Палю
    Выпущено: США
    Продолжительность: 01:36:33
    Перевод: Дублированный
    В ролях: Джессика Альба, Алессандро Нивола, Паркер Пози, Рейд Сербеджия, Фернанда Ромеро, Рэйчел Тикотин, Обба Бабатунде, Дэнни Мора, Хлоя Моретц, Бретт Хаворт, Кевин К., Тэмлин Томита, Эзоди Гейджер, Карен Остин, Райан Дж. Пездрик, Джеймс Салас, Бретт О'Мара, Лэндалл Гулсби, Сара Е. Бэйкер, Лаура Словински, Ричард Редлефсен


Сюжет фильма
    Эллисон ослепла еще в детстве. Долгие годы в абсолютной темноте она терпеливо ждала того часа, когда с помощью современной медицины вновь обретёт зрение. И вот, спустя двадцать лет, наступил долгожданный момент – ей приживляют донорскую роговицу.
    Однако вскоре пересаженным ей донорским глазом она начинает видеть в зеркале смутные образы. В поисках ответов Эллисон пытается выяснить, что случилось с предыдущим обладателем глаза.


Файл
    Качество: BDRip 1080p (исходник Blu-ray Remux)
    Видео: 1920x816, 10700 Кбит/сек, 23,976 кадр/сек, AVC, x264, High@L4.1, 2.35:1, 0.285 Бит/[Пиксели*Кадры], 2pass
    Аудио 1: AC-3, 448 Кбит/сек, 6 канала(ов), 48,0 КГц - Дублированный / Русский
    Аудио 2: AC-3, 640 Кбит/сек, 6 канала(ов), 48,0 КГц - Оригинал / Английский
    Субтитры: Русские | Полные, Английские | Полные
    Чаптеры: Есть



Релиз Группа : & Автор Рипа :



Format : Matroska
Format version : Version 4 / Version 2
File size : 7.94 GiB
Duration : 1h 36mn
Overall bit rate : 11.8 Mbps
Movie name : Глаз.(2008).BDRip.1080p.(DVD9).[NoLimits-Team]
Encoded date : UTC 2013-09-09 11:26:21
Writing application : mkvmerge v6.3.0 ('You can't stop me!') built on Jun 28 2013 20:09:41
Writing library : libebml v1.3.0 + libmatroska v1.4.0

Video
ID : 1
Format : AVC
Format/Info : Advanced Video Codec
Format profile : High@L4.1
Format settings, CABAC : Yes
Format settings, ReFrames : 5 frames
Codec ID : V_MPEG4/ISO/AVC
Duration : 1h 36mn
Bit rate : 10.7 Mbps
Width : 1 920 pixels
Height : 816 pixels
Display aspect ratio : 2.35:1
Frame rate mode : Constant
Frame rate : 23.976 fps
Color space : YUV
Chroma subsampling : 4:2:0
Bit depth : 8 bits
Scan type : Progressive
Bits/(Pixel*Frame) : 0.285
Stream size : 7.04 GiB (89%)
Title : Глаз.(2008).BDRip.1080p.(DVD9).[NoLimits-Team]
Writing library : x264 core 138 r2358 9e941d1
Encoding settings : cabac=1 / ref=5 / deblock=1:-3:-3 / analyse=0x3:0x133 / me=umh / subme=11 / psy=1 / psy_rd=1.00:0.00 / mixed_ref=1 / me_range=32 / chroma_me=1 / trellis=2 / 8x8dct=1 / cqm=0 / deadzone=21,11 / fast_pskip=0 / chroma_qp_offset=-2 / threads=12 / lookahead_threads=1 / sliced_threads=0 / nr=0 / decimate=1 / interlaced=0 / bluray_compat=0 / constrained_intra=0 / bframes=6 / b_pyramid=2 / b_adapt=2 / b_bias=0 / direct=3 / weightb=1 / open_gop=0 / weightp=2 / keyint=240 / keyint_min=23 / scenecut=40 / intra_refresh=0 / rc=2pass / mbtree=0 / bitrate=10700 / ratetol=2.0 / qcomp=0.60 / qpmin=0 / qpmax=69 / qpstep=4 / cplxblur=20.0 / qblur=0.5 / ip_ratio=1.40 / pb_ratio=1.30 / aq=1:0.80
Language : English
Default : Yes
Forced : No

Audio #1
ID : 2
Format : AC-3
Format/Info : Audio Coding 3
Mode extension : CM (complete main)
Format settings, Endianness : Big
Codec ID : A_AC3
Duration : 1h 36mn
Bit rate mode : Constant
Bit rate : 448 Kbps
Channel(s) : 6 channels
Channel positions : Front: L C R, Side: L R, LFE
Sampling rate : 48.0 KHz
Bit depth : 16 bits
Compression mode : Lossy
Stream size : 309 MiB (4%)
Title : Дублированный
Language : Russian
Default : Yes
Forced : No

Audio #2
ID : 3
Format : AC-3
Format/Info : Audio Coding 3
Mode extension : CM (complete main)
Format settings, Endianness : Big
Codec ID : A_AC3
Duration : 1h 36mn
Bit rate mode : Constant
Bit rate : 640 Kbps
Channel(s) : 6 channels
Channel positions : Front: L C R, Side: L R, LFE
Sampling rate : 48.0 KHz
Bit depth : 16 bits
Compression mode : Lossy
Stream size : 442 MiB (5%)
Title : Оригинал
Language : English
Default : No
Forced : No

Text #1
ID : 4
Format : UTF-8
Codec ID : S_TEXT/UTF8
Codec ID/Info : UTF-8 Plain Text
Title : Полные
Language : Russian
Default : No
Forced : No

Text #2
ID : 5
Format : UTF-8
Codec ID : S_TEXT/UTF8
Codec ID/Info : UTF-8 Plain Text
Title : Full
Language : English
Default : No
Forced : No

Menu
00:00:00.000 : :Chapter 01
00:05:28.453 : :Chapter 02
00:10:43.726 : :Chapter 03
00:16:38.038 : :Chapter 04
00:22:34.102 : :Chapter 05
00:29:36.941 : :Chapter 06
00:35:46.894 : :Chapter 07
00:40:37.393 : :Chapter 08
00:45:49.913 : :Chapter 09
00:51:32.923 : :Chapter 10
00:59:11.089 : :Chapter 11
01:07:01.642 : :Chapter 12
01:13:09.885 : :Chapter 13
01:19:52.662 : :Chapter 14
01:25:13.066 : :Chapter 15
01:32:07.850 : :Chapter 16


загрузка...
Правила, инструкции, FAQ!!!
Торрент  Добавлен [09 сен 2013, 15:38] Скачать торрент
Скачать торрент
[ Размер 40.11 КБ / Просмотров 15 ]

Статус  
 
Размер  7.94 ГБ
Приватный: Нет (DHT включён)
.torrent скачан  0
Как залить торрент? | Как скачать Torrent? | Как смотреть и слушать онлайн?  


     Отправить личное сообщение
   
Страница 1 из 1
Показать сообщения за:  Поле сортировки  
Начать новую тему Ответить на тему

   Похожие торренты   Автор   Ответы   Просмотры   Последнее сообщение 
В этой теме нет новых непрочитанных сообщений. Скачать торрент Проверен Кошачий глаз / Cat's Eye (1985) BDRip 1080p | P2

в форуме 720p | 1080p, Размер: 6.85 ГБ, Здоровье: 100%

Anonymous

0
3|1

27
86

18 июл 2014, 16:25

Anonymous Перейти к последнему сообщению

В этой теме нет новых непрочитанных сообщений. Скачать торрент Глаз / The Eye (Дэвид Моро / David Moreau, Ксавьер Палю / Xavier Palud) [2008, Ужасы, триллер, драма, BDRip] Dub

в форуме Ужасы, Размер: 1.46 ГБ, Здоровье: 0%

Anonymous

0
0|0

44
0

16 фев 2014, 13:09

Anonymous Перейти к последнему сообщению

В этой теме нет новых непрочитанных сообщений. Скачать торрент Глаз / The Eye (2008) HDRip | D

в форуме Ужасы, Размер: 2.15 ГБ, Здоровье: 0%

Anonymous

0
0|0

56
0

20 дек 2013, 08:04

Anonymous Перейти к последнему сообщению

В этой теме нет новых непрочитанных сообщений. Скачать торрент Проверен Дайан Вэйлян | Нефритовый Глаз [2008] [FB2]

в форуме Детективы и Боевики, Размер: 765.87 КБ, Здоровье: 100%

Anonymous

0
1|1

28
0

20 сен 2014, 21:27

Anonymous Перейти к последнему сообщению

В этой теме нет новых непрочитанных сообщений. Скачать торрент Проверен Синбад и Глаз Тигра / Sinbad and the Eye of the Tiger (1977) BDRip [720p]

в форуме Детское, Семейное кино, Размер: 4.73 ГБ, Здоровье: 0%

Anonymous

0
0|0

38
0

09 авг 2014, 21:27

Anonymous Перейти к последнему сообщению



Сейчас этот форум просматривают: нет зарегистрированных пользователей и гости: 2


Вы не можете начинать темы
Вы не можете отвечать на сообщения
Вы не можете редактировать свои сообщения
Вы не можете удалять свои сообщения
Вы не можете добавлять вложения

Перейти:  

!ВНИМАНИЕ!
 Ресурс не предоставляет электронные версии произведений, а занимается лишь коллекционированием и каталогизацией ссылок, присылаемых и публикуемых на форуме нашими читателями. Если вы являетесь правообладателем какого-либо представленного материала и не желаете чтобы ссылка на него находилась в нашем каталоге, свяжитесь с нами и мы незамедлительно удалим её. Файлы для обмена на трекере предоставлены пользователями сайта, и администрация не несёт ответственности за их содержание. Просьба не заливать файлы, защищенные авторскими правами, а также файлы нелегального содержания!