На всех торрентах на трекере установлена скидка на скачивание в размере 100 процентов(а).
 Возможность скачивания торрента НЕ зависит от ограничений при низком ратио, низком аплоаде, требуемом ратио или требуемом аплоаде.


Начать новую тему Ответить на тему
Статистика раздачи
Размер: 4.37 ГБ | Добавлен: 09 сен 2013, 10:22 | Скачали: 0
Сидеров: 0  [0 байт/сек]    Личеров: 0  [0 байт/сек]
Пред. тема | След. тема 

Автор
Сообщение

СообщениеДобавлено: 09 сен 2013, 10:22 

Информация о фильме
Название: Дитя джунглей
Оригинальное название: Dschungelkind
Год выпуска: 2011
Жанр: Драма, приключения
Режиссер: Роланд Зузо Рихтер
В ролях: Стелла Кункат, Томас Кречманн, Надя Уль, Сина Ткотч, Том Хосбек, Свен Гильник

Сюжет фильма:

Экранизация получившего в Германии огромную известность автобиографического бестселлера Сабины Кюглер. В начале 80-х годов ХХ века Немецкий лингвист Клаус Кюглер вместе с женой и тремя детьми отправляется в джунгли Новой Гвинеи, где он изучает язык недавно обнаруженного туземного племени. В отличие от других членов семьи восьмилетняя Сабина быстро осваивается на новом месте и усваивает многие обычаи и знания туземцев. Однако мирно живущая своей жизнью семья совершенно не подозревает о том, что она оказалась в самом центре племенной вражды. Несмотря на обоюдное желание держаться в стороне друг от друга, пути пришельцев и туземцев со временем начинают постоянно пересекаться. Через девять лет уже семнадцатилетняя Сабина вынуждена покинуть Новую Гвинею, и попадает в школу-интернат в Швейцарии, где она снова встречает полностью чуждый для себя мир со своими сложностями и конфликтами.


Выпущено: Германия, ARD Degeto Film GmbH, Biscuit Films, MSM Studios
Продолжительность: 02:11:45
Перевод: Авторский Ю.Сербин + Оригинальный (немецкий)
Файл
Качество: BDRip 720p (исходник Blu-ray Disc)
Видео: 1280х544, 3 469 кбит/сек, 24.000 кадр/сек, 2.35:1, AVC, x264, 0.208 Бит/(Пиксели*Кадры), 2-pass
Аудио1: AC-3, 640 Кбит/сек, 6 канала(ов), 48,0 КГц - Авторский Ю.Сербин
Аудио2: AC-3, 640 Кбит/сек, 6 канала(ов), 48,0 КГц - Оригинальный (немецкий)
Чаптеры Есть
Субтитры: Русские




Format : Matroska
Format version : Version 2
File size : 4.37 GiB
Duration : 2h 11mn
Overall bit rate : 4 748 Kbps
Movie name : Дитя джунглей.(2011).BDRip.720p.NoLimits-Team
Encoded date : UTC 2013-09-09 06:39:01
Writing application : mkvmerge v5.8.0 ('No Sleep / Pillow') built on Sep 2 2012 15:37:04
Writing library : libebml v1.2.3 + libmatroska v1.3.0

Video
ID : 1
Format : AVC
Format/Info : Advanced Video Codec
Format profile : High@L4.1
Format settings, CABAC : Yes
Format settings, ReFrames : 11 frames
Codec ID : V_MPEG4/ISO/AVC
Duration : 2h 11mn
Bit rate : 3 469 Kbps
Width : 1 280 pixels
Height : 544 pixels
Display aspect ratio : 2.35:1
Frame rate mode : Constant
Frame rate : 24.000 fps
Color space : YUV
Chroma subsampling : 4:2:0
Bit depth : 8 bits
Scan type : Progressive
Bits/(Pixel*Frame) : 0.208
Stream size : 3.10 GiB (71%)
Title : Дитя джунглей.(2011).BDRip.720p от NoLimits-Team Release _denis_100
Writing library : x264 core 138 r2358 9e941d1
Encoding settings : cabac=1 / ref=11 / deblock=1:-3:-3 / analyse=0x3:0x113 / me=umh / subme=11 / psy=1 / psy_rd=1.00:0.15 / mixed_ref=1 / me_range=32 / chroma_me=1 / trellis=2 / 8x8dct=1 / cqm=0 / deadzone=21,11 / fast_pskip=0 / chroma_qp_offset=-3 / threads=6 / lookahead_threads=1 / sliced_threads=0 / nr=0 / decimate=0 / interlaced=0 / bluray_compat=0 / constrained_intra=0 / bframes=6 / b_pyramid=2 / b_adapt=2 / b_bias=0 / direct=3 / weightb=1 / open_gop=0 / weightp=2 / keyint=250 / keyint_min=24 / scenecut=40 / intra_refresh=0 / rc=2pass / mbtree=0 / bitrate=3469 / ratetol=1.0 / qcomp=0.60 / qpmin=0 / qpmax=69 / qpstep=4 / cplxblur=20.0 / qblur=0.5 / ip_ratio=1.40 / pb_ratio=1.30 / aq=1:0.95
Language : English
Default : Yes
Forced : No

Audio #1
ID : 2
Format : AC-3
Format/Info : Audio Coding 3
Mode extension : CM (complete main)
Format settings, Endianness : Big
Codec ID : A_AC3
Duration : 2h 11mn
Bit rate mode : Constant
Bit rate : 640 Kbps
Channel(s) : 6 channels
Channel positions : Front: L C R, Side: L R, LFE
Sampling rate : 48.0 KHz
Bit depth : 16 bits
Compression mode : Lossy
Stream size : 603 MiB (13%)
Title : Авторский Ю.Сербин
Language : Russian
Default : No
Forced : No

Audio #2
ID : 3
Format : AC-3
Format/Info : Audio Coding 3
Mode extension : CM (complete main)
Format settings, Endianness : Big
Codec ID : A_AC3
Duration : 2h 11mn
Bit rate mode : Constant
Bit rate : 640 Kbps
Channel(s) : 6 channels
Channel positions : Front: L C R, Side: L R, LFE
Sampling rate : 48.0 KHz
Bit depth : 16 bits
Compression mode : Lossy
Stream size : 603 MiB (13%)
Title : Германский
Language : German
Default : No
Forced : No

Text
ID : 4
Format : UTF-8
Codec ID : S_TEXT/UTF8
Codec ID/Info : UTF-8 Plain Text
Title : русские
Language : Russian
Default : No
Forced : No

Menu
00:00:00.000 : en:00:00:00.000
00:07:20.375 : en:00:07:20.375
00:17:21.875 : en:00:17:21.875
00:24:33.333 : en:00:24:33.333
00:35:49.833 : en:00:35:49.833
00:43:29.500 : en:00:43:29.500
00:49:29.625 : en:00:49:29.625
00:56:01.208 : en:00:56:01.208
01:04:03.083 : en:01:04:03.083
01:12:28.375 : en:01:12:28.375
01:24:20.416 : en:01:24:20.416
01:32:33.416 : en:01:32:33.416
01:42:20.208 : en:01:42:20.208
01:50:26.208 : en:01:50:26.208
01:57:22.833 : en:01:57:22.833
02:08:31.458 : en:02:08:31.458

Релиз Группа: & Автор Рипа:

загрузка...
Правила, инструкции, FAQ!!!
Торрент  Добавлен [09 сен 2013, 10:22] Скачать торрент
Скачать торрент
[ Размер 22.29 КБ / Просмотров 2 ]

Статус  
 
Размер  4.37 ГБ
Приватный: Нет (DHT включён)
.torrent скачан  0
Как залить торрент? | Как скачать Torrent? | Как смотреть и слушать онлайн?  


     Отправить личное сообщение
   
Страница 1 из 1
Показать сообщения за:  Поле сортировки  
Начать новую тему Ответить на тему

   Похожие торренты   Автор   Ответы   Просмотры   Последнее сообщение 
В этой теме нет новых непрочитанных сообщений. Скачать торрент Проверен Кошмар на улице Вязов 5: Дитя сна / A Nightmare on Elm Street: The Dream Child (1989) BDRip 720p

в форуме 720p | 1080p, Размер: 3.5 ГБ, Здоровье: 100%

Anonymous

0
5|0

77
142

17 авг 2014, 08:21

Anonymous Перейти к последнему сообщению

В этой теме нет новых непрочитанных сообщений. Скачать торрент Дитя человеческое / Children Of Men (2006) BDRip

в форуме Фантастика, Фэнтези, Размер: 2.19 ГБ, Здоровье: 100%

Anonymous

0
23|1

34
325

03 фев 2014, 23:23

Anonymous Перейти к последнему сообщению

В этой теме нет новых непрочитанных сообщений. Скачать торрент Дитя человеческое / Children of Men (2006) BDRip 1080p

в форуме 720p | 1080p, Размер: 7.94 ГБ, Здоровье: 0%

Anonymous

0
0|0

17
0

03 фев 2014, 23:28

Anonymous Перейти к последнему сообщению

В этой теме нет новых непрочитанных сообщений. Скачать торрент Проверен Альтруизм - закон джунглей [2011, RTF/PDF, RUS]

в форуме Эзотерика, гадания, магия, фен-шуй, Размер: 6.26 МБ, Здоровье: ???%

Anonymous

0
0|16

9
0

28 авг 2016, 22:38

Anonymous Перейти к последнему сообщению

В этой теме нет новых непрочитанных сообщений. Скачать торрент Проверен Книга джунглей / The Jungle Book (2016) BDRip 1080p от Ash61 | 3D-Video | halfOU | Лицензия

в форуме HD-Video в 3D, Размер: 15.55 ГБ, Здоровье: 69%

Гость

0
94|136

52
245

28 авг 2016, 23:34

Гость Перейти к последнему сообщению



Сейчас этот форум просматривают: нет зарегистрированных пользователей и гости: 4


Вы не можете начинать темы
Вы не можете отвечать на сообщения
Вы не можете редактировать свои сообщения
Вы не можете удалять свои сообщения
Вы не можете добавлять вложения

Перейти:  

!ВНИМАНИЕ!
 Ресурс не предоставляет электронные версии произведений, а занимается лишь коллекционированием и каталогизацией ссылок, присылаемых и публикуемых на форуме нашими читателями. Если вы являетесь правообладателем какого-либо представленного материала и не желаете чтобы ссылка на него находилась в нашем каталоге, свяжитесь с нами и мы незамедлительно удалим её. Файлы для обмена на трекере предоставлены пользователями сайта, и администрация не несёт ответственности за их содержание. Просьба не заливать файлы, защищенные авторскими правами, а также файлы нелегального содержания!