На всех торрентах на трекере установлена скидка на скачивание в размере 100 процентов(а).
 Возможность скачивания торрента НЕ зависит от ограничений при низком ратио, низком аплоаде, требуемом ратио или требуемом аплоаде.


Начать новую тему Ответить на тему
Статистика раздачи
Размер: 7.95 ГБ | Добавлен: 05 сен 2013, 23:08 | Скачали: 0
Сидеров: 0  [0 байт/сек]    Личеров: 0  [0 байт/сек]
Пред. тема | След. тема 

Автор
Сообщение

СообщениеДобавлено: 05 сен 2013, 23:08 

Информация о фильме
    Русское название: Похождения призрака
    Оригинальное название: Promoción fantasma
    Год выхода: 2012
    Жанр: Фэнтези, комедия, приключения
    Режиссер: Хавьер Риус
    Выпущено: Испания
    Продолжительность: 01:28:19
    Перевод: Профессиональный (многоголосый закадровый) (ТНТ), Одноголосый закадровый (den904)
    В ролях: Рауль Аревало, Александра Хименес, Хавьер Гонзалез, Анна Кастилло, Андреа Дуро, Аура Гарридо, Алекс Маруни, Хайме Олиас, Карлос Аресес, Сильвия Абрил


Сюжет фильма
    Обладающий паранормальными способностями заурядный учитель Модесто может видеть мертвых людей. Это не принесло ему никаких успехов в жизни, скорее наоборот, из-за этого его каждый раз увольняют с работы.
    Однажды ему таки улыбается удача, и он устраивается работать в очень престижную элитную школу. Там его задачей становится обеспечить успешное окончание школы пяти трудным ученикам. Проблема лишь в том, что все они уже двадцать лет как мертвы, погибнув при охватившем школу пожаре. Для измученной пятеркой призраков директрисы школы единственной надеждой на долгожданное избавление от них становится неудачник Модесто.


Файл
    Качество: BDRip 1080p (исходник Blu-ray Remux)
    Видео: 1920x806, 11610 Кбит/сек, 23,976 кадр/сек, AVC, x264, High@L4.1, 2.40:1, 0.313 Бит/[Пиксели*Кадры], 2pass
    Аудио 1: AC-3, 192 Кбит/сек, 2 канала(ов), 48,0 КГц - Профессиональный (многоголосый закадровый) (ТНТ) / Русский
    Аудио 2: AC-3, 448 Кбит/сек, 6 канала(ов), 48,0 КГц - Одноголосый закадровый (den904) / Русский
    Аудио 3: AC-3, 640 Кбит/сек, 6 канала(ов), 48,0 КГц - Оригинал / Испанский
    Субтитры: Русские | Полные, Английские | Полные
    Чаптеры: Есть



Релиз Группа : & Автор Рипа :



Format : Matroska
Format version : Version 4 / Version 2
File size : 7.95 GiB
Duration : 1h 28mn
Overall bit rate : 12.9 Mbps
Movie name : Похождения призрака.(2012).BDRip.1080p.(DVD9).[NoLimits-Team]
Encoded date : UTC 2013-09-05 19:22:55
Writing application : mkvmerge v6.3.0 ('You can't stop me!') built on Jun 28 2013 20:09:41
Writing library : libebml v1.3.0 + libmatroska v1.4.0

Video
ID : 1
Format : AVC
Format/Info : Advanced Video Codec
Format profile : High@L4.1
Format settings, CABAC : Yes
Format settings, ReFrames : 5 frames
Codec ID : V_MPEG4/ISO/AVC
Duration : 1h 28mn
Bit rate : 11.6 Mbps
Width : 1 920 pixels
Height : 806 pixels
Display aspect ratio : 2.40:1
Frame rate mode : Constant
Frame rate : 23.976 fps
Color space : YUV
Chroma subsampling : 4:2:0
Bit depth : 8 bits
Scan type : Progressive
Bits/(Pixel*Frame) : 0.313
Stream size : 7.00 GiB (88%)
Title : Похождения призрака.(2012).BDRip.1080p.(DVD9).[NoLimits-Team]
Writing library : x264 core 138 r2358 9e941d1
Encoding settings : cabac=1 / ref=5 / deblock=1:-3:-3 / analyse=0x3:0x133 / me=umh / subme=11 / psy=1 / psy_rd=1.00:0.00 / mixed_ref=1 / me_range=32 / chroma_me=1 / trellis=2 / 8x8dct=1 / cqm=0 / deadzone=21,11 / fast_pskip=0 / chroma_qp_offset=-2 / threads=12 / lookahead_threads=1 / sliced_threads=0 / nr=0 / decimate=1 / interlaced=0 / bluray_compat=0 / constrained_intra=0 / bframes=6 / b_pyramid=2 / b_adapt=2 / b_bias=0 / direct=3 / weightb=1 / open_gop=0 / weightp=2 / keyint=240 / keyint_min=23 / scenecut=40 / intra_refresh=0 / rc=2pass / mbtree=0 / bitrate=11610 / ratetol=2.0 / qcomp=0.60 / qpmin=0 / qpmax=69 / qpstep=4 / cplxblur=20.0 / qblur=0.5 / ip_ratio=1.40 / pb_ratio=1.30 / aq=1:1.00
Language : Spanish
Default : Yes
Forced : No

Audio #1
ID : 2
Format : AC-3
Format/Info : Audio Coding 3
Mode extension : CM (complete main)
Format settings, Endianness : Big
Codec ID : A_AC3
Duration : 1h 28mn
Bit rate mode : Constant
Bit rate : 192 Kbps
Channel(s) : 2 channels
Channel positions : Front: L R
Sampling rate : 48.0 KHz
Bit depth : 16 bits
Compression mode : Lossy
Stream size : 121 MiB (1%)
Title : ТНТ
Language : Russian
Default : Yes
Forced : No

Audio #2
ID : 3
Format : AC-3
Format/Info : Audio Coding 3
Mode extension : CM (complete main)
Format settings, Endianness : Big
Codec ID : A_AC3
Duration : 1h 28mn
Bit rate mode : Constant
Bit rate : 448 Kbps
Channel(s) : 6 channels
Channel positions : Front: L C R, Side: L R, LFE
Sampling rate : 48.0 KHz
Bit depth : 16 bits
Compression mode : Lossy
Stream size : 283 MiB (3%)
Title : den904
Language : Russian
Default : No
Forced : No

Audio #3
ID : 4
Format : AC-3
Format/Info : Audio Coding 3
Mode extension : CM (complete main)
Format settings, Endianness : Big
Codec ID : A_AC3
Duration : 1h 28mn
Bit rate mode : Constant
Bit rate : 640 Kbps
Channel(s) : 6 channels
Channel positions : Front: L C R, Side: L R, LFE
Sampling rate : 48.0 KHz
Bit depth : 16 bits
Compression mode : Lossy
Stream size : 404 MiB (5%)
Title : Оригинал
Language : Spanish
Default : No
Forced : No

Text #1
ID : 5
Format : UTF-8
Codec ID : S_TEXT/UTF8
Codec ID/Info : UTF-8 Plain Text
Title : Полные
Language : Russian
Default : No
Forced : No

Text #2
ID : 6
Format : UTF-8
Codec ID : S_TEXT/UTF8
Codec ID/Info : UTF-8 Plain Text
Title : Full
Language : English
Default : No
Forced : No

Menu
00:00:00.000 : :Chapter 01
00:09:00.874 : :00:09:00.874
00:17:40.559 : :00:17:40.559
00:28:25.078 : :00:28:25.078
00:38:45.740 : :00:38:45.740
00:46:50.433 : :00:46:50.433
00:53:50.477 : :00:53:50.477
01:03:46.322 : :01:03:46.322
01:15:37.533 : :01:15:37.533
01:23:39.014 : :01:23:39.014


загрузка...
Правила, инструкции, FAQ!!!
Торрент  Добавлен [05 сен 2013, 23:08] Скачать торрент
Скачать торрент
[ Размер 40.21 КБ / Просмотров 4 ]

Статус  
 
Размер  7.95 ГБ
Приватный: Нет (DHT включён)
.torrent скачан  0
Как залить торрент? | Как скачать Torrent? | Как смотреть и слушать онлайн?  


     Отправить личное сообщение
   
Страница 1 из 1
Показать сообщения за:  Поле сортировки  
Начать новую тему Ответить на тему

   Похожие торренты   Автор   Ответы   Просмотры   Последнее сообщение 
В этой теме нет новых непрочитанных сообщений. Скачать торрент Проверен Coldplay - Live 2012 [2012, Alternative rock, post-Britpop, BDRip 1080p]

в форуме Концерты (HD-Video), Размер: 6.56 ГБ, Здоровье: 100%

Anonymous

0
1|0

0
0

23 окт 2016, 12:43

Anonymous Перейти к последнему сообщению

В этой теме нет новых непрочитанных сообщений. Скачать торрент Проверен Ярослав Гашек | Похождения бравого солдата Швейка [2012] [MP3]

в форуме Сатира, юмор, Размер: 1.34 ГБ, Здоровье: 100%

Гость

0
10|1

54
1

24 сен 2015, 20:34

Гость Перейти к последнему сообщению

В этой теме нет новых непрочитанных сообщений. Скачать торрент Рассказы (2012) BDRip 1080p

в форуме 720p | 1080p, Размер: 4.37 ГБ, Здоровье: 0%

Anonymous

0
0|0

58
0

20 фев 2014, 22:35

Anonymous Перейти к последнему сообщению

В этой теме нет новых непрочитанных сообщений. Скачать торрент Проверен После / After (2012) BDRip 1080p | L2, L1

в форуме 720p | 1080p, Размер: 7.03 ГБ, Здоровье: 100%

Гость

0
389|189

195
69

05 июл 2015, 14:37

Гость Перейти к последнему сообщению

В этой теме нет новых непрочитанных сообщений. Скачать торрент Как назло Сибирь (2012) BDRip 1080p

в форуме 720p | 1080p, Размер: 5.09 ГБ, Здоровье: 0%

Anonymous

0
0|0

39
0

05 янв 2014, 13:24

Anonymous Перейти к последнему сообщению



Сейчас этот форум просматривают: нет зарегистрированных пользователей и гости: 2


Вы не можете начинать темы
Вы не можете отвечать на сообщения
Вы не можете редактировать свои сообщения
Вы не можете удалять свои сообщения
Вы не можете добавлять вложения

Перейти:  

!ВНИМАНИЕ!
 Ресурс не предоставляет электронные версии произведений, а занимается лишь коллекционированием и каталогизацией ссылок, присылаемых и публикуемых на форуме нашими читателями. Если вы являетесь правообладателем какого-либо представленного материала и не желаете чтобы ссылка на него находилась в нашем каталоге, свяжитесь с нами и мы незамедлительно удалим её. Файлы для обмена на трекере предоставлены пользователями сайта, и администрация не несёт ответственности за их содержание. Просьба не заливать файлы, защищенные авторскими правами, а также файлы нелегального содержания!