На всех торрентах на трекере установлена скидка на скачивание в размере 100 процентов(а).
 Возможность скачивания торрента НЕ зависит от ограничений при низком ратио, низком аплоаде, требуемом ратио или требуемом аплоаде.


Начать новую тему Ответить на тему
Статистика раздачи
Размер: 11.55 ГБ | Добавлен: 05 сен 2013, 23:05 | Скачали: 0
Сидеров: 0  [0 байт/сек]    Личеров: 0  [0 байт/сек]
Пред. тема | След. тема 

Автор
Сообщение

СообщениеДобавлено: 05 сен 2013, 23:05 

Название: Запах женщины
Оригинальное название: Scent of a Woman
Год выпуска: 1992
Жанр: Драма, ремейк
Режиссер: Мартин Брест
В ролях: Аль Пачино, Крис О’Доннелл, Джеймс Ребхорн, Габриэлль Анвар, Филип Сеймур Хоффман, Ричард Венчур, Брэдли Уитфорд, Рошелль Оливер, Маргарет Эджинтон, Том Риис Фаррелл, Николас Сэдлер, Тодд Луисо, Мэтт Смит, Джин Кэнфилд, Фрэнсис Конрой, Джун Скуиб, Рон Элдард, Сэлли Мерфи, Майкл Санторо, Элисон Фельдман, Эрика Фельдман, Джулиан Стейн, Макс Стейн, Ан Дуонг, Леонард Гейнс

Сюжет фильма:

Наступил День благодарения, и отставной полковник разведки Фрэнк Слэйд решает справить праздник, «побаловав» себя поездкой в Нью-Йорк. Фрэнк хочет обставить свой последний «коронный выход» по высшему разряду: изысканный отель, шикарный лимузин, дорогая выпивка и женщины потрясающей красоты. Есть лишь две проблемки. Первая: Фрэнк слеп на оба глаза. И вторая: волнующиеся родственники полковника решают нанять за небольшую сумму провожатого в лице нуждающегося студента престижного колледжа по имени Чарли Симмз. Последнее, что было нужно в поездке полковнику Слэйду — так это «зеленый» юнец Чарли. Но случилось так, что путешествие этих двух потрясающе не похожих друг на друга людей изменило их жизни навсегда.





Рейтинг R получают фильмы, в содержании которых обязательно содержится материал, предназначенный только для взрослой аудитории. Родителям рекомендуется хорошо подумать, прежде чем посмотреть такой фильм вместе со своими детьми.

Фильм, получивший рейтинг R, скорее всего содержит сексуальные сцены, эпизоды с употреблением наркотиков, нецензурную брань, фрагменты с насилием и т.д.

Выпущено: США, Universal Pictures, City Light Films
Продолжительность: 02:36:16
Перевод: Профессиональный многоголосый закадровый, профессиональный двухголосый закадровый, авторский + Английский
Файл
Качество: BDRip 1080p (исходник Blu-ray Disc)
Видео: 1920х1040, 8 653 Кбит/сек, 23.976 кадр/сек, AVC, x264, 0.181 Бит/(Пиксели*Кадры), 2-pass
Аудио1: AC-3, 384 Кбит/сек, 2 канала(ов), 48,0 КГц - Многоголосый закадровый #1, Blu-ray EUR
Аудио2: AC-3, 384 Кбит/сек, 2 канала(ов), 48,0 КГц - Многоголосый закадровый #2
Аудио3: AC-3, 192 Кбит/сек, 2 канала(ов), 48,0 КГц - Многоголосый закадровый #3, СТС
Аудио4: AC-3, 384 Кбит/сек, 6 канала(ов), 48,0 КГц - Одноголосый закадровый, А.Гаврилов
Аудио5: AC-3, 192 Кбит/сек, 2 канала(ов), 48,0 КГц - Двухголосый закадровый, C.Визгунов с подругой
Аудио6: AC-3, 384 Кбит/сек, 6 канала(ов), 48,0 КГц - Английский

Чаптеры: Есть
Субтитры: Русские




Format : Matroska
Format version : Version 2
File size : 11.5 GiB
Duration : 2h 36mn
Overall bit rate : 10.6 Mbps
Movie name : Запах женщины.(1992).BDRip.1080p.NoLimits-Team
Encoded date : UTC 2013-09-05 17:46:11
Writing application : mkvmerge v5.8.0 ('No Sleep / Pillow') built on Sep 2 2012 15:37:04
Writing library : libebml v1.2.3 + libmatroska v1.3.0

Video
ID : 1
Format : AVC
Format/Info : Advanced Video Codec
Format profile : High@L4.1
Format settings, CABAC : Yes
Format settings, ReFrames : 4 frames
Codec ID : V_MPEG4/ISO/AVC
Duration : 2h 36mn
Bit rate : 8 653 Kbps
Width : 1 920 pixels
Height : 1 040 pixels
Display aspect ratio : 1.85:1
Frame rate mode : Constant
Frame rate : 23.976 fps
Color space : YUV
Chroma subsampling : 4:2:0
Bit depth : 8 bits
Scan type : Progressive
Bits/(Pixel*Frame) : 0.181
Stream size : 9.22 GiB (80%)
Title : Запах женщины.(1992).BDRip.1080p.NoLimits-Team
Writing library : x264 core 135 r2345 f0c1c53
Encoding settings : cabac=1 / ref=4 / deblock=1:-3:-3 / analyse=0x3:0x113 / me=umh / subme=11 / psy=1 / psy_rd=1.00:0.15 / mixed_ref=1 / me_range=32 / chroma_me=1 / trellis=2 / 8x8dct=1 / cqm=0 / deadzone=21,11 / fast_pskip=0 / chroma_qp_offset=-3 / threads=6 / lookahead_threads=1 / sliced_threads=0 / nr=0 / decimate=0 / interlaced=0 / bluray_compat=0 / constrained_intra=0 / bframes=8 / b_pyramid=2 / b_adapt=2 / b_bias=0 / direct=3 / weightb=1 / open_gop=0 / weightp=2 / keyint=240 / keyint_min=23 / scenecut=40 / intra_refresh=0 / rc=2pass / mbtree=0 / bitrate=8653 / ratetol=1.0 / qcomp=0.60 / qpmin=0 / qpmax=69 / qpstep=4 / cplxblur=20.0 / qblur=0.5 / ip_ratio=1.40 / pb_ratio=1.30 / aq=1:0.95
Language : English
Default : Yes
Forced : No

Audio #1
ID : 2
Format : AC-3
Format/Info : Audio Coding 3
Mode extension : CM (complete main)
Format settings, Endianness : Big
Codec ID : A_AC3
Duration : 2h 36mn
Bit rate mode : Constant
Bit rate : 384 Kbps
Channel(s) : 2 channels
Channel positions : Front: L R
Sampling rate : 48.0 KHz
Bit depth : 16 bits
Compression mode : Lossy
Stream size : 430 MiB (4%)
Title : Многоголосый закадровый #1, Blu-ray EUR
Language : Russian
Default : Yes
Forced : No

Audio #2
ID : 3
Format : AC-3
Format/Info : Audio Coding 3
Format profile : Dolby Digital
Mode extension : CM (complete main)
Format settings, Endianness : Big
Codec ID : A_AC3
Duration : 2h 36mn
Bit rate mode : Constant
Bit rate : 384 Kbps
Channel(s) : 2 channels
Channel positions : Front: L R
Sampling rate : 48.0 KHz
Bit depth : 16 bits
Compression mode : Lossy
Stream size : 430 MiB (4%)
Title : Многоголосый закадровый #2
Language : Russian
Default : No
Forced : No

Audio #3
ID : 4
Format : AC-3
Format/Info : Audio Coding 3
Mode extension : CM (complete main)
Format settings, Endianness : Big
Codec ID : A_AC3
Duration : 2h 36mn
Bit rate mode : Constant
Bit rate : 192 Kbps
Channel(s) : 2 channels
Channel positions : Front: L R
Sampling rate : 48.0 KHz
Bit depth : 16 bits
Compression mode : Lossy
Stream size : 215 MiB (2%)
Title : Многоголосый закадровый #3, СТС
Language : Russian
Default : No
Forced : No

Audio #4
ID : 5
Format : AC-3
Format/Info : Audio Coding 3
Mode extension : CM (complete main)
Format settings, Endianness : Big
Codec ID : A_AC3
Duration : 2h 36mn
Bit rate mode : Constant
Bit rate : 384 Kbps
Channel(s) : 6 channels
Channel positions : Front: L C R, Side: L R, LFE
Sampling rate : 48.0 KHz
Bit depth : 16 bits
Compression mode : Lossy
Stream size : 430 MiB (4%)
Title : Одноголосый закадровый, А.Гаврилов
Language : Russian
Default : No
Forced : No

Audio #5
ID : 6
Format : AC-3
Format/Info : Audio Coding 3
Mode extension : CM (complete main)
Format settings, Endianness : Big
Codec ID : A_AC3
Duration : 2h 36mn
Bit rate mode : Constant
Bit rate : 192 Kbps
Channel(s) : 2 channels
Channel positions : Front: L R
Sampling rate : 48.0 KHz
Bit depth : 16 bits
Compression mode : Lossy
Stream size : 215 MiB (2%)
Title : Двухголосый закадровый, C.Визгунов с подругой
Language : Russian
Default : No
Forced : No

Audio #6
ID : 7
Format : AC-3
Format/Info : Audio Coding 3
Mode extension : CM (complete main)
Format settings, Endianness : Big
Codec ID : A_AC3
Duration : 2h 36mn
Bit rate mode : Constant
Bit rate : 384 Kbps
Channel(s) : 6 channels
Channel positions : Front: L C R, Side: L R, LFE
Sampling rate : 48.0 KHz
Bit depth : 16 bits
Compression mode : Lossy
Stream size : 430 MiB (4%)
Title : Английский
Language : English
Default : No
Forced : No

Text
ID : 8
Format : UTF-8
Codec ID : S_TEXT/UTF8
Codec ID/Info : UTF-8 Plain Text
Title : Русские
Language : Russian
Default : No
Forced : No

Menu
00:00:00.000 : en:00:00:00.000
00:06:22.924 : en:00:06:22.924
00:20:06.413 : en:00:20:06.413
00:24:24.880 : en:00:24:24.880
00:35:01.641 : en:00:35:01.641
00:39:09.138 : en:00:39:09.138
00:57:42.959 : en:00:57:42.959
01:08:41.367 : en:01:08:41.367
01:19:31.016 : en:01:19:31.016
01:40:29.523 : en:01:40:29.523
01:52:33.329 : en:01:52:33.329
02:12:00.621 : en:02:12:00.621
02:19:49.047 : en:02:19:49.047
02:26:15.725 : en:02:26:15.725
02:30:16.674 : en:02:30:16.674
02:33:21.984 : en:02:33:21.984



x264 [info]: frame I:1517 Avg QP:20.35 size:138294
x264 [info]: frame P:40996 Avg QP:21.42 size: 80030
x264 [info]: frame B:182487 Avg QP:23.35 size: 35891


Релиз Группа: & Автор Рипа:

загрузка...
Правила, инструкции, FAQ!!!
Торрент  Добавлен [05 сен 2013, 23:05] Скачать торрент
Скачать торрент
[ Размер 58.19 КБ / Просмотров 7 ]

Статус  
 
Размер  11.55 ГБ
Приватный: Нет (DHT включён)
.torrent скачан  0
Как залить торрент? | Как скачать Torrent? | Как смотреть и слушать онлайн?  


     Отправить личное сообщение
   
Страница 1 из 1
Показать сообщения за:  Поле сортировки  
Начать новую тему Ответить на тему

   Похожие торренты   Автор   Ответы   Просмотры   Последнее сообщение 
В этой теме нет новых непрочитанных сообщений. Скачать торрент Проверен Женщины на грани нервного срыва / Mujeres al borde de un ataque de nervios (1988) BDRip 1080p

в форуме 720p | 1080p, Размер: 6.37 ГБ, Здоровье: 53%

Гость

0
16|30

49
5

21 фев 2015, 18:54

Гость Перейти к последнему сообщению

В этой теме нет новых непрочитанных сообщений. Скачать торрент Принесите мне голову пулеметчицы / Bring Me the Head of the Machine Gun Woman (2012) BDRip 1080p | L1

в форуме 720p | 1080p, Размер: 3.99 ГБ, Здоровье: 0%

Anonymous

0
0|0

28
0

24 янв 2014, 07:32

Anonymous Перейти к последнему сообщению

В этой теме нет новых непрочитанных сообщений. Скачать торрент Проверен (Heavy/Power) Metal Scent - Metal Scent - 2007, FLAC (image+.cue), lossless

в форуме Heavy, Power, Progressive (Metal), Размер: 292.55 МБ, Здоровье: 0%

Anonymous

0
0|0

0
0

11 окт 2016, 00:39

Anonymous Перейти к последнему сообщению

В этой теме нет новых непрочитанных сообщений. Скачать торрент Проверен Микки Спиллейн - Сладкий запах смерти. Криминальные романы [1992, DjVu, RUS]

в форуме Детективы и Боевики, Размер: 6.33 МБ, Здоровье: 100%

Anonymous

0
2|1

3
0

08 сен 2016, 20:38

Anonymous Перейти к последнему сообщению

В этой теме нет новых непрочитанных сообщений. Скачать торрент Проверен Чейз Джеймс Хедли - Запах золота [если не ошибаюсь,то Михаил Поздняков, 1992, 128 kbps]

в форуме Детектив и Боевики, Размер: 551.95 МБ, Здоровье: 0%

Anonymous

0
0|0

0
0

20 ноя 2016, 16:06

Anonymous Перейти к последнему сообщению



Сейчас этот форум просматривают: нет зарегистрированных пользователей и гости: 1


Вы не можете начинать темы
Вы не можете отвечать на сообщения
Вы не можете редактировать свои сообщения
Вы не можете удалять свои сообщения
Вы не можете добавлять вложения

Перейти:  

!ВНИМАНИЕ!
 Ресурс не предоставляет электронные версии произведений, а занимается лишь коллекционированием и каталогизацией ссылок, присылаемых и публикуемых на форуме нашими читателями. Если вы являетесь правообладателем какого-либо представленного материала и не желаете чтобы ссылка на него находилась в нашем каталоге, свяжитесь с нами и мы незамедлительно удалим её. Файлы для обмена на трекере предоставлены пользователями сайта, и администрация не несёт ответственности за их содержание. Просьба не заливать файлы, защищенные авторскими правами, а также файлы нелегального содержания!