На всех торрентах на трекере установлена скидка на скачивание в размере 100 процентов(а).
 Возможность скачивания торрента НЕ зависит от ограничений при низком ратио, низком аплоаде, требуемом ратио или требуемом аплоаде.


Начать новую тему Ответить на тему
Статистика раздачи
Размер: 7.94 ГБ | Добавлен: 05 сен 2013, 12:00 | Скачали: 75
Сидеров: 10  [0 байт/сек]    Личеров: 3  [0 байт/сек]
Пред. тема | След. тема 

Автор
Сообщение

СообщениеДобавлено: 05 сен 2013, 12:00 

Информация о фильме
    Русское название: Взрослая неожиданность
    Оригинальное название: Role Models
    Год выхода: 2008
    Жанр: Мелодрама, комедия
    Режиссер: Дэвид Уэйн
    Выпущено: США, Германия
    Продолжительность: 01:41:09
    Перевод: Дублированный, Профессиональный (двухголосый, закадровый)
    В ролях: Шонн Уильям Скотт, Пол Радд, Кристофер Минц-Плассе, Бобби Дж. Томпсон, Элизабет Бэнкс, Джейн Линч, Кен Жонг, Кен Марино, Керри Кенни, А.Д. Майлз


Сюжет фильма
    Пройдохи Денни и Уиллер - представители компании, торгующей энергетическими напитками. Однажды они переворачивают хозяйский грузовик и отправляются под суд. Чтобы не оказаться за решеткой, бедокуры решают схитрить и поучаствовать в многочасовой воспитательной программе для детей. Через день они понимают, что лучше бы выбрали тюрьму. Денни выпала нелегкая доля: сделать из сопливого шестнадцатилетнего паренька, одержимого средневековыми постановками, настоящего мужчину. Меж тем, Уиллер воспитывает пятиклассника Ронни. Возможно, из этой затеи вышел бы прок, не окажись первый большим любителем венецианских пляжей и легкого алкоголя.


Файл
    Качество: BDRip 1080p (исходник Blu-ray Remux)
    Видео: 1920x1040, 9725 Кбит/сек, 23,976 кадр/сек, AVC, x264, High@L4.1, 1.85:1, 0.203 Бит/[Пиксели*Кадры], 2pass
    Аудио 1: AC-3, 448 Кбит/сек, 6 канала(ов), 48,0 КГц - Дублированный / Русский
    Аудио 2: AC-3, 448 Кбит/сек, 6 канала(ов), 48,0 КГц - Профессиональный (двухголосый, закадровый) / Русский
    Аудио 3: AC-3, 640 Кбит/сек, 6 канала(ов), 48,0 КГц - Оригинал / Английский
    Субтитры: Русские | Полные, Английские | Полные
    Чаптеры: Есть



Релиз Группа : & Автор Рипа :



Format : Matroska
Format version : Version 4 / Version 2
File size : 7.94 GiB
Duration : 1h 41mn
Overall bit rate : 11.2 Mbps
Movie name : Взрослая неожиданность.(2008).BDRip.1080p.(DVD9).[NoLimits-Team]
Encoded date : UTC 2013-09-05 06:13:58
Writing application : mkvmerge v6.3.0 ('You can't stop me!') built on Jun 28 2013 20:09:41
Writing library : libebml v1.3.0 + libmatroska v1.4.0

Video
ID : 1
Format : AVC
Format/Info : Advanced Video Codec
Format profile : High@L4.1
Format settings, CABAC : Yes
Format settings, ReFrames : 4 frames
Codec ID : V_MPEG4/ISO/AVC
Duration : 1h 41mn
Bit rate : 9 725 Kbps
Width : 1 920 pixels
Height : 1 040 pixels
Display aspect ratio : 1.85:1
Frame rate mode : Constant
Frame rate : 23.976 fps
Color space : YUV
Chroma subsampling : 4:2:0
Bit depth : 8 bits
Scan type : Progressive
Bits/(Pixel*Frame) : 0.203
Stream size : 6.70 GiB (84%)
Title : Взрослая неожиданность.(2008).BDRip.1080p.(DVD9).[NoLimits-Team]
Writing library : x264 core 138 r2358 9e941d1
Encoding settings : cabac=1 / ref=4 / deblock=1:-3:-3 / analyse=0x3:0x133 / me=umh / subme=11 / psy=1 / psy_rd=1.00:0.00 / mixed_ref=1 / me_range=32 / chroma_me=1 / trellis=2 / 8x8dct=1 / cqm=0 / deadzone=21,11 / fast_pskip=0 / chroma_qp_offset=-2 / threads=12 / lookahead_threads=1 / sliced_threads=0 / nr=0 / decimate=1 / interlaced=0 / bluray_compat=0 / constrained_intra=0 / bframes=6 / b_pyramid=2 / b_adapt=2 / b_bias=0 / direct=3 / weightb=1 / open_gop=0 / weightp=2 / keyint=240 / keyint_min=23 / scenecut=40 / intra_refresh=0 / rc=2pass / mbtree=0 / bitrate=9725 / ratetol=2.0 / qcomp=0.60 / qpmin=0 / qpmax=69 / qpstep=4 / cplxblur=20.0 / qblur=0.5 / ip_ratio=1.40 / pb_ratio=1.30 / aq=1:0.90
Language : English
Default : Yes
Forced : No

Audio #1
ID : 2
Format : AC-3
Format/Info : Audio Coding 3
Mode extension : CM (complete main)
Format settings, Endianness : Big
Codec ID : A_AC3
Duration : 1h 41mn
Bit rate mode : Constant
Bit rate : 448 Kbps
Channel(s) : 6 channels
Channel positions : Front: L C R, Side: L R, LFE
Sampling rate : 48.0 KHz
Bit depth : 16 bits
Compression mode : Lossy
Stream size : 324 MiB (4%)
Title : Дубляж
Language : Russian
Default : Yes
Forced : No

Audio #2
ID : 3
Format : AC-3
Format/Info : Audio Coding 3
Mode extension : CM (complete main)
Format settings, Endianness : Big
Codec ID : A_AC3
Duration : 1h 41mn
Bit rate mode : Constant
Bit rate : 448 Kbps
Channel(s) : 6 channels
Channel positions : Front: L C R, Side: L R, LFE
Sampling rate : 48.0 KHz
Bit depth : 16 bits
Compression mode : Lossy
Stream size : 324 MiB (4%)
Title : Двухголосый закадровый
Language : Russian
Default : No
Forced : No

Audio #3
ID : 4
Format : AC-3
Format/Info : Audio Coding 3
Mode extension : CM (complete main)
Format settings, Endianness : Big
Codec ID : A_AC3
Duration : 1h 41mn
Bit rate mode : Constant
Bit rate : 640 Kbps
Channel(s) : 6 channels
Channel positions : Front: L C R, Side: L R, LFE
Sampling rate : 48.0 KHz
Bit depth : 16 bits
Compression mode : Lossy
Stream size : 463 MiB (6%)
Title : Оригинал
Language : English
Default : No
Forced : No

Text #1
ID : 5
Format : UTF-8
Codec ID : S_TEXT/UTF8
Codec ID/Info : UTF-8 Plain Text
Title : Полные
Language : Russian
Default : No
Forced : No

Text #2
ID : 6
Format : UTF-8
Codec ID : S_TEXT/UTF8
Codec ID/Info : UTF-8 Plain Text
Title : Full
Language : English
Default : No
Forced : No

Menu
00:00:00.000 : :Chapter 01
00:05:38.462 : :Chapter 02
00:09:40.327 : :Chapter 03
00:13:34.686 : :Chapter 04
00:18:38.865 : :Chapter 05
00:24:18.623 : :Chapter 06
00:28:50.935 : :Chapter 07
00:32:07.797 : :Chapter 08
00:38:01.527 : :Chapter 09
00:43:41.367 : :Chapter 10
00:49:48.235 : :Chapter 11
00:55:32.286 : :Chapter 12
01:00:50.896 : :Chapter 13
01:07:46.436 : :Chapter 14
01:12:22.671 : :Chapter 15
01:16:56.612 : :Chapter 16
01:22:19.809 : :Chapter 17
01:27:37.335 : :Chapter 18
01:32:24.328 : :Chapter 19
01:38:02.710 : :Chapter 20
01:41:06.810 : :Chapter 21


загрузка...
Правила, инструкции, FAQ!!!
Торрент  Добавлен [05 сен 2013, 12:00] Скачать торрент
Скачать торрент
[ Размер 40.17 КБ / Просмотров 13 ]

Статус  
 
Размер  7.94 ГБ
Приватный: Нет (DHT включён)
.torrent скачан  75
Как залить торрент? | Как скачать Torrent? | Как смотреть и слушать онлайн?  


     Отправить личное сообщение
   
Страница 1 из 1
Показать сообщения за:  Поле сортировки  
Начать новую тему Ответить на тему

   Похожие торренты   Автор   Ответы   Просмотры   Последнее сообщение 
В этой теме нет новых непрочитанных сообщений. Скачать торрент Взрослая неожиданность / Role Models (Дэвид Уэйн / David Wain) [2008 г., комедия, HDRip-AVC] Unrated

в форуме 720p | 1080p, Размер: 1.48 ГБ, Здоровье: 100%

Anonymous

0
12|4

37
0

19 фев 2014, 09:56

Anonymous Перейти к последнему сообщению

В этой теме нет новых непрочитанных сообщений. Скачать торрент Полупрофессионал / Semi-Pro [Unrated] (Кент Альтерман) [1080p] [2008 г., комедия, спорт, BDRip]

в форуме 720p | 1080p, Размер: 8.26 ГБ, Здоровье: 0%

Anonymous

0
0|0

21
1

25 фев 2014, 22:41

Anonymous Перейти к последнему сообщению

В этой теме нет новых непрочитанных сообщений. Скачать торрент Проверен Морской бой / Battleship (2012) BDRip 1080p от New-Team

в форуме 720p | 1080p, Размер: 13.87 ГБ, Здоровье: 100%

Anonymous

0
61|58

23
152

31 авг 2014, 17:09

Anonymous Перейти к последнему сообщению

В этой теме нет новых непрочитанных сообщений. Скачать торрент Проверен Команда «А» / The A-Team (2010) BDRip 1080p | Расширенная версия

в форуме 720p | 1080p, Размер: 11.54 ГБ, Здоровье: 100%

Гость

0
23|3

30
101

01 дек 2014, 17:21

Гость Перейти к последнему сообщению

В этой теме нет новых непрочитанных сообщений. Скачать торрент Проверен В поисках Дори / Finding Dory (2016) BDRip 1080p от New-Team & qqss44 | iTunes

в форуме Зарубежные мультфильмы (HD Video), Размер: 8.55 ГБ, Здоровье: 100%

Гость

0
1004|240

72
97

29 окт 2016, 21:06

Гость Перейти к последнему сообщению



Сейчас этот форум просматривают: нет зарегистрированных пользователей и гости: 1


Вы не можете начинать темы
Вы не можете отвечать на сообщения
Вы не можете редактировать свои сообщения
Вы не можете удалять свои сообщения
Вы не можете добавлять вложения

Перейти:  

!ВНИМАНИЕ!
 Ресурс не предоставляет электронные версии произведений, а занимается лишь коллекционированием и каталогизацией ссылок, присылаемых и публикуемых на форуме нашими читателями. Если вы являетесь правообладателем какого-либо представленного материала и не желаете чтобы ссылка на него находилась в нашем каталоге, свяжитесь с нами и мы незамедлительно удалим её. Файлы для обмена на трекере предоставлены пользователями сайта, и администрация не несёт ответственности за их содержание. Просьба не заливать файлы, защищенные авторскими правами, а также файлы нелегального содержания!