На всех торрентах на трекере установлена скидка на скачивание в размере 100 процентов(а).
 Возможность скачивания торрента НЕ зависит от ограничений при низком ратио, низком аплоаде, требуемом ратио или требуемом аплоаде.


Начать новую тему Ответить на тему
Статистика раздачи
Размер: 1.45 ГБ | Добавлен: 04 сен 2013, 08:38 | Скачали: 0
Сидеров: 0  [0 байт/сек]    Личеров: 0  [0 байт/сек]
Пред. тема | След. тема 

Автор
Сообщение

СообщениеДобавлено: 04 сен 2013, 08:38 

Информация о фильме
Название: Смертный приговор
Оригинальное название: Death Sentence
Год выхода: 2007
Жанр: боевик, триллер, драма, криминал
Режиссер: Джеймс Ван

В ролях: Кевин Бейкон, Келли Престон, Джордан Гаррет, Стюарт Лэфферти, Гаррет Хедлунд, Аиша Тайлер, Джон Гудмен, Мэтью О’Лири, Эди Гатеги, Гектор Руис

О фильме: Ник — менеджер крупной компании, обходительный и вежливый человек с репутацией отличного семьянина. Его жизнь была прекрасна, до тех пор, пока однажды он не стал свидетелем того, что полностью и бесповоротно сделало его иным. Поселившаяся в нём с той ужасной ночи ярость приводит его к твердой уверенности, что для защиты своей семьи он не остановится ни перед чем…



Страна: США
Продолжительность: 01:45:30
Перевод: Профессиональный (многоголосый закадровый), Оригинал (Английский)

Файл
Кодек: x.264
Качество: BDRip-AVC
Видео: 1024x416 (2,462), 23,976 fps, 1395 kbps, 0.137 bit/pixel
Аудио #1: 48 kHz, AC3 Dolby Digital, 6 ch, ~384.00 kbps (Русский)
Аудио #2: 48 kHz, AC3 Dolby Digital, 2 ch, ~192.00 kbps (Английский)
Субтитры: Русские, Английские (отключаемые)

&

Общее
Уникальный идентификатор : 220808954887609751484113290168257093943 (0xA61E42008966E36BB2752885B4F22137)
Полное имя : D:Death Sentence.2007.BDRip-AVC.mkv
Формат : Matroska
Версия формата : Version 4 / Version 2
Размер файла : 1,45 Гбайт
Продолжительность : 1 ч. 45 м.
Общий поток : 1973 Кбит/сек
Название фильма : Смертный приговор / Death Sentence (2007) BDRip-AVC rip by Rulya74
Дата кодирования : UTC 2013-08-29 18:19:46
Программа кодирования : mkvmerge v6.2.0 ('Promised Land') built on Apr 28 2013 12:22:01
Библиотека кодирования : libebml v1.3.0 + libmatroska v1.4.0

Видео
Идентификатор : 1
Формат : AVC
Формат/Информация : Advanced Video Codec
Профиль формата : High@L4.1
Параметр CABAC формата : Да
Параметр ReFrames формата : 8 кадров
Идентификатор кодека : V_MPEG4/ISO/AVC
Продолжительность : 1 ч. 45 м.
Битрейт : 1395 Кбит/сек
Ширина : 1024 пикселя
Высота : 416 пикселей
Соотношение сторон : 2,462
Режим частоты кадров : Постоянный
Частота кадров : 23,976 кадра/сек
Цветовое пространство : YUV
Субдискретизация насыщенности : 4:2:0
Битовая глубина : 8 бит
Тип развёртки : Прогрессивная
Бит/(Пиксели*Кадры) : 0.137
Размер потока : 1,00 Гбайт (69%)
Библиотека кодирования : x264 core 133 r2334 a3ac64b
Настройки программы : cabac=1 / ref=8 / deblock=1:-2:-1 / analyse=0x3:0x113 / me=umh / subme=10 / psy=1 / psy_rd=1.06:0.16 / mixed_ref=1 / me_range=32 / chroma_me=1 / trellis=2 / 8x8dct=1 / cqm=0 / deadzone=21,11 / fast_pskip=0 / chroma_qp_offset=-3 / threads=2 / lookahead_threads=1 / sliced_threads=0 / nr=0 / decimate=1 / interlaced=0 / bluray_compat=0 / constrained_intra=0 / bframes=9 / b_pyramid=2 / b_adapt=2 / b_bias=0 / direct=3 / weightb=1 / open_gop=0 / weightp=2 / keyint=240 / keyint_min=23 / scenecut=40 / intra_refresh=0 / rc_lookahead=40 / rc=2pass / mbtree=1 / bitrate=1395 / ratetol=1.0 / qcomp=0.60 / qpmin=10 / qpmax=69 / qpstep=4 / cplxblur=20.0 / qblur=0.5 / vbv_maxrate=62500 / vbv_bufsize=78125 / nal_hrd=none / ip_ratio=1.40 / aq=1:1.00
Default : Да
Forced : Нет

Аудио #1
Идентификатор : 2
Формат : AC-3
Формат/Информация : Audio Coding 3
Расширение режима : CM (complete main)
Параметр Endianness формата : Big
Идентификатор кодека : A_AC3
Продолжительность : 1 ч. 45 м.
Вид битрейта : Постоянный
Битрейт : 384 Кбит/сек
Каналы : 6 каналов
Расположение каналов : Front: L C R, Side: L R, LFE
Частота : 48,0 КГц
Битовая глубина : 16 бит
Метод сжатия : С потерями
Размер потока : 290 Мбайт (19%)
Заголовок : Многоголосый закадровый (Киномания)
Язык : Russian
Default : Да
Forced : Нет

Аудио #2
Идентификатор : 3
Формат : AC-3
Формат/Информация : Audio Coding 3
Расширение режима : CM (complete main)
Параметр Endianness формата : Big
Идентификатор кодека : A_AC3
Продолжительность : 1 ч. 45 м.
Вид битрейта : Постоянный
Битрейт : 192 Кбит/сек
Каналы : 2 канала
Расположение каналов : Front: L R
Частота : 48,0 КГц
Битовая глубина : 16 бит
Метод сжатия : С потерями
Размер потока : 145 Мбайт (10%)
Заголовок : Оригинал
Язык : English
Default : Нет
Forced : Нет

Текст #1
Идентификатор : 4
Формат : UTF-8
Идентификатор кодека : S_TEXT/UTF8
Идентификатор кодека/Информация : UTF-8 Plain Text
Язык : Russian
Default : Да
Forced : Нет

Текст #2
Идентификатор : 5
Формат : UTF-8
Идентификатор кодека : S_TEXT/UTF8
Идентификатор кодека/Информация : UTF-8 Plain Text
Язык : English
Default : Нет
Forced : Нет

загрузка...
Правила, инструкции, FAQ!!!
Торрент  Добавлен [04 сен 2013, 08:38] Скачать торрент
Скачать торрент
[ Размер 14.96 КБ / Просмотров 8 ]

Статус  
 
Размер  1.45 ГБ
Приватный: Нет (DHT включён)
.torrent скачан  0
Как залить торрент? | Как скачать Torrent? | Как смотреть и слушать онлайн?  


     Отправить личное сообщение
   
Страница 1 из 1
Показать сообщения за:  Поле сортировки  
Начать новую тему Ответить на тему

   Похожие торренты   Автор   Ответы   Просмотры   Последнее сообщение 
В этой теме нет новых непрочитанных сообщений. Скачать торрент Смертный приговор / Death Sentence (2007) BDRip 1080p

в форуме 720p | 1080p, Размер: 7.95 ГБ, Здоровье: 0%

Anonymous

0
0|0

32
0

21 янв 2014, 10:32

Anonymous Перейти к последнему сообщению

В этой теме нет новых непрочитанных сообщений. Скачать торрент Проверен Проклятый отель 7. Смертный приговор. Коллекционное издание (2015) PC

в форуме Приключения и квесты|я ищу, Размер: 1.45 ГБ, Здоровье: 100%

Гость

0
377|17

105
291

20 дек 2015, 13:19

Гость Перейти к последнему сообщению

В этой теме нет новых непрочитанных сообщений. Скачать торрент Проверен Брайан Гарфилд - Жажда смерти (Смертельное желание), Смертный приговор [1993, FB2, RUS]

в форуме Зарубежная литература (XX и XXI век), Размер: 691.73 КБ, Здоровье: 0%

Anonymous

0
0|0

6
0

08 сен 2016, 18:35

Anonymous Перейти к последнему сообщению

В этой теме нет новых непрочитанных сообщений. Скачать торрент Проверен Сергей Бубновский | Остеохондроз – не приговор! Грыжа позвоночника – не приговор! (2015) [FB2, RTF]

в форуме Нетрадиционная медицина, Размер: 16.68 МБ, Здоровье: 100%

Anonymous

0
246|13

200
24

30 янв 2016, 17:29

Anonymous Перейти к последнему сообщению

В этой теме нет новых непрочитанных сообщений. Скачать торрент Проверен (Thrash Metal) [Mini-LP][24/96] Destruction - Sentence Of Death - 1984, FLAC (image+.cue)

в форуме Зарубежный рок (оцифровки), Размер: 741.61 МБ, Здоровье: 100%

Anonymous

0
2|1

2
0

25 авг 2016, 17:37

Anonymous Перейти к последнему сообщению



Сейчас этот форум просматривают: нет зарегистрированных пользователей и гости: 1


Вы не можете начинать темы
Вы не можете отвечать на сообщения
Вы не можете редактировать свои сообщения
Вы не можете удалять свои сообщения
Вы не можете добавлять вложения

Перейти:  

!ВНИМАНИЕ!
 Ресурс не предоставляет электронные версии произведений, а занимается лишь коллекционированием и каталогизацией ссылок, присылаемых и публикуемых на форуме нашими читателями. Если вы являетесь правообладателем какого-либо представленного материала и не желаете чтобы ссылка на него находилась в нашем каталоге, свяжитесь с нами и мы незамедлительно удалим её. Файлы для обмена на трекере предоставлены пользователями сайта, и администрация не несёт ответственности за их содержание. Просьба не заливать файлы, защищенные авторскими правами, а также файлы нелегального содержания!