На всех торрентах на трекере установлена скидка на скачивание в размере 100 процентов(а).
 Возможность скачивания торрента НЕ зависит от ограничений при низком ратио, низком аплоаде, требуемом ратио или требуемом аплоаде.


Начать новую тему Ответить на тему
Статистика раздачи
Размер: 8.86 ГБ | Добавлен: 04 сен 2013, 08:25 | Скачали: 17
Сидеров: 11  [0 байт/сек]    Личеров: 20  [0 байт/сек]
Пред. тема | След. тема 

Автор
Сообщение

СообщениеДобавлено: 04 сен 2013, 08:25 

Информация о фильме
Название: Час расплаты
Оригинальное название: Paycheck
Год выхода: 2003
Жанр: Фантастика, боевик, триллер, детектив
Режиссер: Джон Ву
В ролях: Бен Аффлек, Ума Турман, Аарон Экхарт, Пол Джаматти, Колм Фиор, Джо Мортон, Майкл С. Холл, Питер Фридман, Кэтрин Моррис, Ивана Миличевич

О фильме:
Майкл Дженнингс — выдающийся компьютерный инженер-виртоуз, работающий над строго засекреченными мега-проектами. После успешного выполнения работы Майклу на специальном устройстве стирают часть памяти, дабы он не смог вспомнить никаких подробностей.
Последнее дело Дженнингса — контракт на три года от старого друга, по завершении которого герой должен получить чек на «скромную» восьмизначную сумму. Какого же было удивление инженера, когда он, придя в себя после «стирания» памяти, не обнаружил заветного чека, но нашел конверт со странными предметами, которые он послал себе сам. Эти предметы — ключи к «стертому» прошлому Дженнингса, где скрывается страшная тайна!



Страна: США, Канада
Студия: Davis Entertainment, DreamWorks SKG, Paramount Pictures
Продолжительность: 01:58:46
Перевод: Дублированный + Оригинал

Файл
Кодек: x264
Качество: BDRip 1080p (источник: HDCLUB / Blu-ray Remux / 1080p)
Видео: 1920х818 (2.35:1), 8565 Kbps, 23.976 fps, 0.227 bit/pixel
Аудио #1: 48.0 kHz, AC3 Dolby Digital, 3/2 (L,C,R,l,r) + LFE ch, 384 kbps [Дубляж]
Аудио #2: 48.0 kHz, AC3 Dolby Digital, 3/2 (L,C,R,l,r) + LFE ch, 640 kbps [Английский]
Субтитры: Русские, английские
Размер: 7.95 GB

Отдельно в папке:
Аудио #3: 48.0 kHz, AC3 Dolby Digital, 3/2 (L,C,R,l,r) + LFE ch, 448 kbps [Двухголосый]
Аудио #4: 48.0 kHz, AC3 Dolby Digital, 3/2 (L,C,R,l,r) + LFE ch, 640 kbps [Авторский, Ю. Живов]

Семпл



x264 [info]: frame I:1457 Avg QP:17.98 size:177924
x264 [info]: frame P:45710 Avg QP:20.95 size: 74191
x264 [info]: frame B:123688 Avg QP:22.95 size: 32131
General
Unique ID : 202344391648248761607933665040166566913 (0x983A1CBF647C25D5AB7C29CBEA103C01)
Complete name : E:Paycheck.2003.x264.BDRip.1080pPaycheck.2003.x264.BDRip.1080p.mkv
Format : Matroska
Format version : Version 2
File size : 7.95 GiB
Duration : 1h 58mn
Overall bit rate : 9 586 Kbps
Encoded date : UTC 2013-08-28 16:02:03
Writing application : mkvmerge v5.8.0 ('No Sleep / Pillow') built on Sep 2 2012 15:37:04
Writing library : libebml v1.2.3 + libmatroska v1.3.0

Video
ID : 1
Format : AVC
Format/Info : Advanced Video Codec
Format profile : High@L4.1
Format settings, CABAC : Yes
Format settings, ReFrames : 5 frames
Codec ID : V_MPEG4/ISO/AVC
Duration : 1h 58mn
Bit rate : 8 565 Kbps
Width : 1 920 pixels
Height : 818 pixels
Display aspect ratio : 2.35:1
Frame rate mode : Constant
Frame rate : 23.976 fps
Color space : YUV
Chroma subsampling : 4:2:0
Bit depth : 8 bits
Scan type : Progressive
Bits/(Pixel*Frame) : 0.227
Stream size : 6.94 GiB (87%)
Writing library : x264 core 135 r2345 f0c1c53
Encoding settings : cabac=1 / ref=5 / deblock=1:-2:-2 / analyse=0x3:0x133 / me=tesa / subme=11 / psy=1 / psy_rd=1.00:0.00 / mixed_ref=1 / me_range=32 / chroma_me=1 / trellis=2 / 8x8dct=1 / cqm=0 / deadzone=21,11 / fast_pskip=0 / chroma_qp_offset=-2 / threads=12 / lookahead_threads=1 / sliced_threads=0 / nr=0 / decimate=0 / interlaced=0 / bluray_compat=0 / constrained_intra=0 / bframes=5 / b_pyramid=2 / b_adapt=2 / b_bias=0 / direct=3 / weightb=1 / open_gop=0 / weightp=2 / keyint=240 / keyint_min=23 / scenecut=40 / intra_refresh=0 / rc=2pass / mbtree=0 / bitrate=8565 / ratetol=1.0 / qcomp=0.60 / qpmin=0 / qpmax=69 / qpstep=4 / cplxblur=20.0 / qblur=0.5 / ip_ratio=1.40 / pb_ratio=1.30 / aq=1:1.00
Language : English
Default : Yes
Forced : No

Audio #1
ID : 2
Format : AC-3
Format/Info : Audio Coding 3
Mode extension : CM (complete main)
Format settings, Endianness : Big
Codec ID : A_AC3
Duration : 1h 58mn
Bit rate mode : Constant
Bit rate : 384 Kbps
Channel(s) : 6 channels
Channel positions : Front: L C R, Side: L R, LFE
Sampling rate : 48.0 KHz
Bit depth : 16 bits
Compression mode : Lossy
Stream size : 326 MiB (4%)
Title : AC3 5.1ch 384 kbps - Дубляж
Language : Russian
Default : Yes
Forced : No

Audio #2
ID : 3
Format : AC-3
Format/Info : Audio Coding 3
Mode extension : CM (complete main)
Format settings, Endianness : Big
Codec ID : A_AC3
Duration : 1h 58mn
Bit rate mode : Constant
Bit rate : 640 Kbps
Channel(s) : 6 channels
Channel positions : Front: L C R, Side: L R, LFE
Sampling rate : 48.0 KHz
Bit depth : 16 bits
Compression mode : Lossy
Stream size : 544 MiB (7%)
Title : AC3 5.1ch 640 kbps - Английский
Language : English
Default : No
Forced : No

Text #1
ID : 4
Format : UTF-8
Codec ID : S_TEXT/UTF8
Codec ID/Info : UTF-8 Plain Text
Title : Русские
Language : Russian
Default : No
Forced : No

Text #2
ID : 5
Format : UTF-8
Codec ID : S_TEXT/UTF8
Codec ID/Info : UTF-8 Plain Text
Title : Английские
Language : English
Default : No
Forced : No

Menu
00:00:00.000 : en:Get 'a Life'
00:06:33.518 : en:October 19th
00:09:28.108 : en:Highlights
00:12:03.431 : en:Rachel
00:15:07.740 : en:The Pitch
00:18:15.135 : en:The Next Three Years
00:25:13.887 : en:Some Knickknacks
00:29:32.353 : en:I Don't Remember
00:34:15.386 : en:3:03 Pm
00:40:01.899 : en:20 Items
00:43:32.610 : en:Let's Work Backwards
00:47:51.869 : en:Change of Plans
00:57:11.302 : en:Looking at the Future
01:00:26.497 : en:Going Somewhere?
01:06:05.169 : en:We End Up Together
01:10:56.585 : en:It Isn't a Car
01:17:42.948 : en:Proof of the Past
01:20:41.795 : en:Headlines
01:25:46.182 : en:Point of No Return
01:32:33.171 : en:Escape Artists
01:39:58.575 : en:The Fate of One Bullet
01:50:29.622 : en:A Gilded Cage
загрузка...
Правила, инструкции, FAQ!!!
Торрент  Добавлен [04 сен 2013, 08:25] Скачать торрент
Скачать торрент
[ Размер 22.87 КБ / Просмотров 15 ]

Статус  
 
Размер  8.86 ГБ
Приватный: Нет (DHT включён)
.torrent скачан  17
Как залить торрент? | Как скачать Torrent? | Как смотреть и слушать онлайн?  


     Отправить личное сообщение
   
Страница 1 из 1
Показать сообщения за:  Поле сортировки  
Начать новую тему Ответить на тему

   Похожие торренты   Автор   Ответы   Просмотры   Последнее сообщение 
В этой теме нет новых непрочитанных сообщений. Скачать торрент Час расплаты / Paycheck (2003) BDRip

в форуме Фантастика, Фэнтези, Размер: 1.46 ГБ, Здоровье: 100%

Anonymous

0
53|13

131
123

20 янв 2014, 12:34

Anonymous Перейти к последнему сообщению

В этой теме нет новых непрочитанных сообщений. Скачать торрент Проверен Час расплаты / Paycheck (2003) BDRip 720p

в форуме 720p | 1080p, Размер: 10.36 ГБ, Здоровье: 47%

Гость

0
39|82

28
26

30 ноя 2014, 02:39

Гость Перейти к последнему сообщению

В этой теме нет новых непрочитанных сообщений. Скачать торрент Час расплаты / Paycheck (Джон Ву / John Woo) [2003 г., фантастика, боевик, триллер, BDRip] Dub

в форуме Фантастика, Фэнтези, Размер: 2.56 ГБ, Здоровье: 100%

Anonymous

0
12|4

38
0

28 апр 2014, 22:43

Anonymous Перейти к последнему сообщению

В этой теме нет новых непрочитанных сообщений. Скачать торрент Проверен Люди Икс 2 / X2 (2003) BDRip 1080p

в форуме 720p | 1080p, Размер: 6.94 ГБ, Здоровье: 100%

Anonymous

0
9|7

39
34

29 окт 2014, 23:48

Anonymous Перейти к последнему сообщению

В этой теме нет новых непрочитанных сообщений. Скачать торрент Проверен Готика / Gothika (2003) BDRip 1080p

в форуме 720p | 1080p, Размер: 4.37 ГБ, Здоровье: 100%

Anonymous

0
36|7

32
294

06 авг 2014, 16:25

Anonymous Перейти к последнему сообщению



Сейчас этот форум просматривают: нет зарегистрированных пользователей и гости: 3


Вы не можете начинать темы
Вы не можете отвечать на сообщения
Вы не можете редактировать свои сообщения
Вы не можете удалять свои сообщения
Вы не можете добавлять вложения

Перейти:  

!ВНИМАНИЕ!
 Ресурс не предоставляет электронные версии произведений, а занимается лишь коллекционированием и каталогизацией ссылок, присылаемых и публикуемых на форуме нашими читателями. Если вы являетесь правообладателем какого-либо представленного материала и не желаете чтобы ссылка на него находилась в нашем каталоге, свяжитесь с нами и мы незамедлительно удалим её. Файлы для обмена на трекере предоставлены пользователями сайта, и администрация не несёт ответственности за их содержание. Просьба не заливать файлы, защищенные авторскими правами, а также файлы нелегального содержания!