На всех торрентах на трекере установлена скидка на скачивание в размере 100 процентов(а).
 Возможность скачивания торрента НЕ зависит от ограничений при низком ратио, низком аплоаде, требуемом ратио или требуемом аплоаде.


Начать новую тему Ответить на тему
Статистика раздачи
Размер: 319.21 МБ | Добавлен: 04 сен 2013, 08:00 | Скачали: 0
Сидеров: 0  [0 байт/сек]    Личеров: 0  [0 байт/сек]
Пред. тема | След. тема 

Автор
Сообщение

СообщениеДобавлено: 04 сен 2013, 08:00 

Информация о фильме
Название: Человек-улыбка
Оригинальное название: The Smile Man
Год выхода: 2013
Жанр: короткометражка, комедия, драма
Режиссер: Антон Ланшаков
В ролях: Уиллем Дефо, Камилла Гуати, Дэвид Ст. Джеймс, Джереми Люк, Дэмиен Д. Смит

О фильме:
Данный фильм рассказывает о человеке, который попал в автомобильную аварию. В результате этого он получил повреждение позвоночника и теперь всё время вынужден жить с улыбкой на лице.

Страна: США, Россия
Продолжительность: 00:09:48
Перевод: Профессиональный (двухголосый закадровый) RG - Creative Sound

Файл
Кодек: H264
Качество: 1080
Видео: 1920x1080, 16:9, 23.976 fps, 4 403 Kbps
Звук: AAC 44100Hz stereo 147Kbps, 2 channels
Субтитры: Русские - hardsub (неотключаемые)

Семпл

General
Complete name : C:UsersАдминDesktop2013 Человек-улыбка.mp4
Format : MPEG-4
Format profile : Base Media
Codec ID : isom
File size : 319 MiB
Duration : 9mn 57s
Overall bit rate mode : Variable
Overall bit rate : 4 479 Kbps
Encoded date : UTC 2013-05-23 13:59:56
Tagged date : UTC 2013-05-23 13:59:56
Writing application : Lavf54.63.104

Video
ID : 1
Format : AVC
Format/Info : Advanced Video Codec
Format profile : High@L4.0
Format settings, CABAC : Yes
Format settings, ReFrames : 2 frames
Codec ID : avc1
Codec ID/Info : Advanced Video Coding
Duration : 9mn 50s
Bit rate : 4 403 Kbps
Width : 1 920 pixels
Height : 1 080 pixels
Display aspect ratio : 16:9
Frame rate mode : Constant
Frame rate : 23.976 fps
Color space : YUV
Chroma subsampling : 4:2:0
Bit depth : 8 bits
Scan type : Progressive
Bits/(Pixel*Frame) : 0.089
Stream size : 308 MiB (97%)
Writing library : x264 core 129
Encoding settings : cabac=1 / ref=2 / deblock=1:0:0 / analyse=0x3:0x113 / me=hex / subme=6 / psy=1 / psy_rd=1.00:0.00 / mixed_ref=1 / me_range=16 / chroma_me=1 / trellis=0 / 8x8dct=1 / cqm=0 / deadzone=21,11 / fast_pskip=1 / chroma_qp_offset=-2 / threads=4 / lookahead_threads=1 / sliced_threads=0 / nr=0 / decimate=1 / interlaced=0 / bluray_compat=0 / constrained_intra=0 / bframes=0 / weightp=2 / keyint=250 / keyint_min=25 / scenecut=40 / intra_refresh=0 / rc_lookahead=40 / rc=2pass / mbtree=1 / bitrate=4403 / ratetol=1.0 / qcomp=0.60 / qpmin=10 / qpmax=51 / qpstep=4 / cplxblur=20.0 / qblur=0.5 / ip_ratio=1.41 / aq=1:1.00
Encoded date : UTC 2013-05-23 13:59:56
Tagged date : UTC 2013-05-23 13:59:56

Audio
ID : 2
Format : AAC
Format/Info : Advanced Audio Codec
Format profile : LC
Codec ID : 40
Duration : 9mn 57s
Duration_FirstFrame : 70ms
Bit rate mode : Variable
Bit rate : 148 Kbps
Maximum bit rate : 176 Kbps
Channel(s) : 2 channels
Channel positions : Front: L R
Sampling rate : 44.1 KHz
Compression mode : Lossy
Stream size : 10.5 MiB (3%)
Encoded date : UTC 2013-05-23 13:59:56
Tagged date : UTC 2013-05-23 13:59:56
загрузка...
Правила, инструкции, FAQ!!!
Торрент  Добавлен [04 сен 2013, 08:00] Скачать торрент
Скачать торрент
[ Размер 12.89 КБ / Просмотров 6 ]

Статус  
 
Размер  319.21 МБ
Приватный: Нет (DHT включён)
.torrent скачан  0
Как залить торрент? | Как скачать Torrent? | Как смотреть и слушать онлайн?  


     Отправить личное сообщение
   
Страница 1 из 1
Показать сообщения за:  Поле сортировки  
Начать новую тему Ответить на тему

   Похожие торренты   Автор   Ответы   Просмотры   Последнее сообщение 
В этой теме нет новых непрочитанных сообщений. Скачать торрент Проверен Улыбка Моны Лизы / Mona Lisa Smile (2002) BDRip

в форуме Драмы, Мелодрамы, Размер: 2.18 ГБ, Здоровье: 100%

Гость

0
16|0

49
9

25 апр 2015, 19:02

Гость Перейти к последнему сообщению

В этой теме нет новых непрочитанных сообщений. Скачать торрент Проверен Улыбка Моны Лизы / Mona Lisa Smile (2003) BDRip 720p | D

в форуме 720p | 1080p, Размер: 4.88 ГБ, Здоровье: 100%

Гость

0
53|8

21
29

25 апр 2015, 18:52

Гость Перейти к последнему сообщению

В этой теме нет новых непрочитанных сообщений. Скачать торрент Проверен Avril Lavigne - Smile (MTVHD) [2011, Pop, Rock, HDTV 1080i]

в форуме Концерты (HD-Video), Размер: 404.07 МБ, Здоровье: 100%

Anonymous

0
1|0

6
0

23 окт 2016, 11:23

Anonymous Перейти к последнему сообщению

В этой теме нет новых непрочитанных сообщений. Скачать торрент Проверен Avril Lavigne - Smile (Schlag den Raab 04.06.11) HD-1080i [2011, Pop, Rock, HDTV]

в форуме Концерты (HD-Video), Размер: 474.51 МБ, Здоровье: 100%

Anonymous

0
1|0

3
0

23 окт 2016, 14:15

Anonymous Перейти к последнему сообщению

В этой теме нет новых непрочитанных сообщений. Скачать торрент Проверен Человек из Рино / Man from Reno (2014) WEB-DLRip | L

в форуме Триллеры, Размер: 1.47 ГБ, Здоровье: 72%

Гость

0
57|79

98
26

26 мар 2016, 19:49

Гость Перейти к последнему сообщению



Сейчас этот форум просматривают: нет зарегистрированных пользователей и гости: 2


Вы не можете начинать темы
Вы не можете отвечать на сообщения
Вы не можете редактировать свои сообщения
Вы не можете удалять свои сообщения
Вы не можете добавлять вложения

Перейти:  

!ВНИМАНИЕ!
 Ресурс не предоставляет электронные версии произведений, а занимается лишь коллекционированием и каталогизацией ссылок, присылаемых и публикуемых на форуме нашими читателями. Если вы являетесь правообладателем какого-либо представленного материала и не желаете чтобы ссылка на него находилась в нашем каталоге, свяжитесь с нами и мы незамедлительно удалим её. Файлы для обмена на трекере предоставлены пользователями сайта, и администрация не несёт ответственности за их содержание. Просьба не заливать файлы, защищенные авторскими правами, а также файлы нелегального содержания!