На всех торрентах на трекере установлена скидка на скачивание в размере 100 процентов(а).
 Возможность скачивания торрента НЕ зависит от ограничений при низком ратио, низком аплоаде, требуемом ратио или требуемом аплоаде.


Начать новую тему Ответить на тему
Статистика раздачи
Размер: 7.94 ГБ | Добавлен: 03 сен 2013, 15:58 | Скачали: 0
Сидеров: 0  [0 байт/сек]    Личеров: 0  [0 байт/сек]
Пред. тема | След. тема 

Автор
Сообщение

СообщениеДобавлено: 03 сен 2013, 15:58 


Информация о фильме
    Русское название: Невидимый
    Оригинальное название: The Invisible
    Год выхода: 2007
    Жанр: Триллер, фэнтези, мелодрама, драма, криминал, детектив
    Режиссер: Дэвид С. Гойер
    Выпущено: США, Канада
    Продолжительность: 01:42:22
    Перевод: Дублированный, Авторский (одноголосый закадровый) (Ю.Немахов)
    В ролях: Джастин Чэтвин, Маргарита Левиева, Марсия Гэй Харден, Крис Маркетт, Алекс О`Лахлан, Каллум Кейт Ренни, Мишель Харрисон, Райан Кеннеди, Эндрю Френсис, П. Линн Джонсон, Серж Уд, Дезри Журовски, Марк Хотон, Алекс Феррис и др.


Сюжет фильма
    Нику уготовано блестящее будущее, но по нелепой и роковой случайности он становится жертвой жестокого нападения... Ник не умер, хотя его дух и покинул бренную оболочку. Его напуганная душа затерялась между миром живых и мертвых и тщетно пытается обрести покой. Тем временем полиция отчаянно ищет его, не подозревая, что лишь считанные часы отделяют его от настоящей гибели. По трагической иронии спасти его может девушка, скрывающаяся от закона, преступная и жестокая, чьей жертвой и стал Ник.


Файл
    Качество: BDRip 1080p (исходник Blu-ray Remux)
    Видео: 1920x800, 9390 Кбит/сек, 23,976 кадр/сек, AVC, x264, High@L4.1, 2.40:1, 0.255 Бит/[Пиксели*Кадры], 2pass
    Аудио 1: AC-3, 448 Кбит/сек, 6 канала(ов), 48,0 КГц - Дублированный / Русский
    Аудио 2: AC-3, 640 Кбит/сек, 6 канала(ов), 48,0 КГц - Авторский (одноголосый закадровый) (Ю.Немахов / Русский
    Аудио 3: AC-3, 640 Кбит/сек, 6 канала(ов), 48,0 КГц - Оригинал / Английский
    Субтитры: Русские | Полные, Английские | Полные
    Чаптеры: Есть



Релиз Группа : & Автор Рипа :



Format : Matroska
Format version : Version 4 / Version 2
File size : 7.94 GiB
Duration : 1h 42mn
Overall bit rate : 11.1 Mbps
Movie name : Невидимый.(2007).BDRip.1080p.(DVD9).[NoLimits-Team]
Encoded date : UTC 2013-09-03 05:36:56
Writing application : mkvmerge v6.3.0 ('You can't stop me!') built on Jun 28 2013 20:09:41
Writing library : libebml v1.3.0 + libmatroska v1.4.0

Video
ID : 1
Format : AVC
Format/Info : Advanced Video Codec
Format profile : High@L4.1
Format settings, CABAC : Yes
Format settings, ReFrames : 5 frames
Codec ID : V_MPEG4/ISO/AVC
Duration : 1h 42mn
Bit rate : 9 390 Kbps
Width : 1 920 pixels
Height : 800 pixels
Display aspect ratio : 2.40:1
Frame rate mode : Constant
Frame rate : 23.976 fps
Color space : YUV
Chroma subsampling : 4:2:0
Bit depth : 8 bits
Scan type : Progressive
Bits/(Pixel*Frame) : 0.255
Stream size : 6.55 GiB (82%)
Title : Невидимый.(2007).BDRip.1080p.(DVD9).[NoLimits-Team]
Writing library : x264 core 138 r2358 9e941d1
Encoding settings : cabac=1 / ref=5 / deblock=1:-3:-3 / analyse=0x3:0x133 / me=umh / subme=11 / psy=1 / psy_rd=1.00:0.00 / mixed_ref=1 / me_range=32 / chroma_me=1 / trellis=2 / 8x8dct=1 / cqm=0 / deadzone=21,11 / fast_pskip=0 / chroma_qp_offset=-2 / threads=12 / lookahead_threads=1 / sliced_threads=0 / nr=0 / decimate=1 / interlaced=0 / bluray_compat=0 / constrained_intra=0 / bframes=6 / b_pyramid=2 / b_adapt=2 / b_bias=0 / direct=3 / weightb=1 / open_gop=0 / weightp=2 / keyint=240 / keyint_min=23 / scenecut=40 / intra_refresh=0 / rc=2pass / mbtree=0 / bitrate=9390 / ratetol=2.0 / qcomp=0.60 / qpmin=0 / qpmax=69 / qpstep=4 / cplxblur=20.0 / qblur=0.5 / ip_ratio=1.40 / pb_ratio=1.30 / aq=1:0.90
Language : English
Default : Yes
Forced : No

Audio #1
ID : 2
Format : AC-3
Format/Info : Audio Coding 3
Mode extension : CM (complete main)
Format settings, Endianness : Big
Codec ID : A_AC3
Duration : 1h 42mn
Bit rate mode : Constant
Bit rate : 448 Kbps
Channel(s) : 6 channels
Channel positions : Front: L C R, Side: L R, LFE
Sampling rate : 48.0 KHz
Bit depth : 16 bits
Compression mode : Lossy
Stream size : 328 MiB (4%)
Title : Дублированный
Language : Russian
Default : Yes
Forced : No

Audio #2
ID : 3
Format : AC-3
Format/Info : Audio Coding 3
Mode extension : CM (complete main)
Format settings, Endianness : Big
Codec ID : A_AC3
Duration : 1h 42mn
Bit rate mode : Constant
Bit rate : 640 Kbps
Channel(s) : 6 channels
Channel positions : Front: L C R, Side: L R, LFE
Sampling rate : 48.0 KHz
Bit depth : 16 bits
Compression mode : Lossy
Stream size : 469 MiB (6%)
Title : Ю.Немахов
Language : Russian
Default : No
Forced : No

Audio #3
ID : 4
Format : AC-3
Format/Info : Audio Coding 3
Mode extension : CM (complete main)
Format settings, Endianness : Big
Codec ID : A_AC3
Duration : 1h 42mn
Bit rate mode : Constant
Bit rate : 640 Kbps
Channel(s) : 6 channels
Channel positions : Front: L C R, Side: L R, LFE
Sampling rate : 48.0 KHz
Bit depth : 16 bits
Compression mode : Lossy
Stream size : 469 MiB (6%)
Title : Оригинал
Language : English
Default : No
Forced : No

Text #1
ID : 5
Format : UTF-8
Codec ID : S_TEXT/UTF8
Codec ID/Info : UTF-8 Plain Text
Title : Полные
Language : Russian
Default : No
Forced : No

Text #2
ID : 6
Format : UTF-8
Codec ID : S_TEXT/UTF8
Codec ID/Info : UTF-8 Plain Text
Title : Full
Language : English
Default : Yes
Forced : No

Menu
00:00:00.000 : :Chapter 01
00:04:36.275 : :Chapter 02
00:12:03.972 : :Chapter 03
00:17:13.156 : :Chapter 04
00:23:30.826 : :Chapter 05
00:31:57.080 : :Chapter 06
00:38:15.668 : :Chapter 07
00:44:17.152 : :Chapter 08
00:49:48.527 : :Chapter 09
00:55:06.719 : :Chapter 10
01:02:03.594 : :Chapter 11
01:09:46.555 : :Chapter 12
01:15:30.859 : :Chapter 13
01:22:00.414 : :Chapter 14
01:26:05.118 : :Chapter 15
01:33:19.135 : :Chapter 16


загрузка...
Правила, инструкции, FAQ!!!
Торрент  Добавлен [03 сен 2013, 15:58] Скачать торрент
Скачать торрент
[ Размер 40.16 КБ / Просмотров 13 ]

Статус  
 
Размер  7.94 ГБ
Приватный: Нет (DHT включён)
.torrent скачан  0
Как залить торрент? | Как скачать Torrent? | Как смотреть и слушать онлайн?  


     Отправить личное сообщение
   
Страница 1 из 1
Показать сообщения за:  Поле сортировки  
Начать новую тему Ответить на тему

   Похожие торренты   Автор   Ответы   Просмотры   Последнее сообщение 
В этой теме нет новых непрочитанных сообщений. Скачать торрент Невидимый / The Invisible (2007) BDRip 720p

в форуме 720p | 1080p, Размер: 3.88 ГБ, Здоровье: 0%

Anonymous

0
0|0

29
0

20 дек 2013, 12:06

Anonymous Перейти к последнему сообщению

В этой теме нет новых непрочитанных сообщений. Скачать торрент Невидимый / The Invisible (Дэвид С. Гойер / David S. Goyer) [2007 г., триллер, фэнтези, мелодрама, BDRip] Dub

в форуме Фантастика, Фэнтези, Размер: 1.46 ГБ, Здоровье: 100%

Anonymous

0
34|11

54
1

02 апр 2014, 12:08

Anonymous Перейти к последнему сообщению

В этой теме нет новых непрочитанных сообщений. Скачать торрент Проверен [iPad] Невидимый / The Invisible (Дэвид С. Гойер / David S. Goyer ) [2007, США, Канада, фэнтези, триллер, драма, криминал, детектив, HDRip, SD (576p)] DUB + Original + sub (rus, eng)

в форуме Фильмы для iPod, iPhone, iPad, Размер: 1.78 ГБ, Здоровье: 100%

Гость

0
8|2

54
0

12 май 2015, 00:06

Гость Перейти к последнему сообщению

В этой теме нет новых непрочитанных сообщений. Скачать торрент Проверен (Progressive rock) Invisible - Invisible - 1974, FLAC (image + .cue + scans), lossless

в форуме Progressive & Art-Rock, Размер: 216.5 МБ, Здоровье: 0%

Anonymous

0
0|0

0
0

31 авг 2016, 21:11

Anonymous Перейти к последнему сообщению

В этой теме нет новых непрочитанных сообщений. Скачать торрент Проверен (Blues Rock, Prog Rock) [LP]+[7"] [24/96] Invisible - Invisible - 1974, FLAC (tracks+.cue)

в форуме Зарубежный рок (оцифровки), Размер: 903.16 МБ, Здоровье: 100%

Anonymous

0
82|1

10
0

27 авг 2016, 11:21

Anonymous Перейти к последнему сообщению



Сейчас этот форум просматривают: нет зарегистрированных пользователей и гости: 3


Вы не можете начинать темы
Вы не можете отвечать на сообщения
Вы не можете редактировать свои сообщения
Вы не можете удалять свои сообщения
Вы не можете добавлять вложения

Перейти:  

!ВНИМАНИЕ!
 Ресурс не предоставляет электронные версии произведений, а занимается лишь коллекционированием и каталогизацией ссылок, присылаемых и публикуемых на форуме нашими читателями. Если вы являетесь правообладателем какого-либо представленного материала и не желаете чтобы ссылка на него находилась в нашем каталоге, свяжитесь с нами и мы незамедлительно удалим её. Файлы для обмена на трекере предоставлены пользователями сайта, и администрация не несёт ответственности за их содержание. Просьба не заливать файлы, защищенные авторскими правами, а также файлы нелегального содержания!