На всех торрентах на трекере установлена скидка на скачивание в размере 100 процентов(а).
 Возможность скачивания торрента НЕ зависит от ограничений при низком ратио, низком аплоаде, требуемом ратио или требуемом аплоаде.


Начать новую тему Ответить на тему
Статистика раздачи
Размер: 7.76 ГБ | Добавлен: 02 сен 2013, 20:05 | Скачали: 446
Сидеров: 72  [0 байт/сек]    Личеров: 3  [0 байт/сек]
Пред. тема | След. тема 

Автор
Сообщение

СообщениеДобавлено: 02 сен 2013, 20:05 

Информация о фильме:
Название: Другие
Оригинальное название: The Others
Год выхода: 2001
Жанр: ужасы, триллер, драма, детектив
Режиссер: Алехандро Аменабар
В ролях: Николь Кидман, Кит Аллен, Кристофер Экклстон, Мишель Фэйрли, Эрик Сайкс, Илэйн Кэссиди, Джеймс Бентли, Алакина Манн, Фионулла Фланаган, Рени Эшерсон

О фильме:
Красавица Грейс увозит своих больных детей в особняк на одном из островов у побережья Англии, чтобы дождаться окончания Второй мировой войны. Войны, с которой вернется ее муж.
Ее дочь и сын страдают странным заболеванием: они не выносят прямого дневного света. Когда в доме появляются трое новых слуг, они должны выучить жизненно важное правило: все комнаты всегда должны быть в полумраке, нельзя открывать дверь, пока не заперта предыдущая. Строгому порядку, установленному Грейс, будет брошен вызов. Грейс, дети и те, кто их окружает, сделают решающий, роковой шаг.



Выпущено: США, Испания, Франция, Италия
Продолжительность: 01:44:23
Перевод: Дублированный + Авторский (одноголосый закадровый) Живов + Оригинал

Файл
Кодек: x264
Качество: BDRip 1080p
Видео: 1920x1080, 9324 Kbps, 24.000 fps
Аудио #1: AC-3, 6 ch, 448 kbps (Rus)
Аудио #2: AC-3, 6 ch, 448 kbps (Rus) (VO - Живов)
Аудио #3: AC-3, 6 ch, 448 kbps (Eng)
Субтитры: русские, английские

Общее
Уникальный идентификатор : 187638586643267361398553025380527781952 (0x8D29E095055240C28F9757A09E3A3840)
Полное имя : Другие.2001.BDRip.1080p.Rus.Eng.mkv
Формат : Matroska
Версия формата : Version 2
Размер файла : 7,76 Гбайт
Продолжительность : 1 ч. 44 м.
Общий поток : 10,6 Мбит/сек
Название фильма : Другие.2001
Дата кодирования : UTC 2013-09-02 14:16:33
Программа кодирования : mkvmerge v5.8.0 ('No Sleep / Pillow') built on Sep 2 2012 15:37:04
Библиотека кодирования : libebml v1.2.3 + libmatroska v1.3.0

Видео
Идентификатор : 1
Формат : AVC
Формат/Информация : Advanced Video Codec
Профиль формата : High@L4.1
Параметр CABAC формата : Да
Параметр ReFrames формата : 4 кадра
Идентификатор кодека : V_MPEG4/ISO/AVC
Продолжительность : 1 ч. 44 м.
Битрейт : 9324 Кбит/сек
Ширина : 1920 пикселей
Высота : 1080 пикселей
Соотношение сторон : 16:9
Режим частоты кадров : Постоянный
Частота кадров : 24,000 кадра/сек
Цветовое пространство : YUV
Субдискретизация насыщенности : 4:2:0
Битовая глубина : 8 бит
Тип развёртки : Прогрессивная
Бит/(Пиксели*Кадры) : 0.187
Размер потока : 6,63 Гбайт (85%)
Заголовок : Rip by Boriy
Библиотека кодирования : x264 core 138 r2358 9e941d1
Настройки программы : cabac=1 / ref=4 / deblock=1:-3:-3 / analyse=0x3:0x113 / me=umh / subme=11 / psy=1 / psy_rd=1.00:0.00 / mixed_ref=1 / me_range=32 / chroma_me=1 / trellis=2 / 8x8dct=1 / cqm=0 / deadzone=21,11 / fast_pskip=0 / chroma_qp_offset=-2 / threads=12 / lookahead_threads=1 / sliced_threads=0 / nr=0 / decimate=0 / interlaced=0 / bluray_compat=0 / constrained_intra=0 / bframes=6 / b_pyramid=2 / b_adapt=2 / b_bias=0 / direct=3 / weightb=1 / open_gop=0 / weightp=2 / keyint=240 / keyint_min=24 / scenecut=40 / intra_refresh=0 / rc=2pass / mbtree=0 / bitrate=9324 / ratetol=1.0 / qcomp=0.60 / qpmin=0 / qpmax=69 / qpstep=4 / cplxblur=20.0 / qblur=0.5 / ip_ratio=1.40 / pb_ratio=1.30 / aq=1:0.90
Язык : English
Default : Да
Forced : Нет

Аудио #1
Идентификатор : 2
Формат : AC-3
Формат/Информация : Audio Coding 3
Расширение режима : CM (complete main)
Параметр Endianness формата : Big
Идентификатор кодека : A_AC3
Продолжительность : 1 ч. 44 м.
Вид битрейта : Постоянный
Битрейт : 448 Кбит/сек
Каналы : 6 каналов
Расположение каналов : Front: L C R, Side: L R, LFE
Частота : 48,0 КГц
Битовая глубина : 16 бит
Метод сжатия : С потерями
Размер потока : 334 Мбайт (4%)
Заголовок : Дубляж
Язык : Russian
Default : Да
Forced : Нет

Аудио #2
Идентификатор : 3
Формат : AC-3
Формат/Информация : Audio Coding 3
Расширение режима : CM (complete main)
Параметр Endianness формата : Big
Идентификатор кодека : A_AC3
Продолжительность : 1 ч. 44 м.
Вид битрейта : Постоянный
Битрейт : 448 Кбит/сек
Каналы : 6 каналов
Расположение каналов : Front: L C R, Side: L R, LFE
Частота : 48,0 КГц
Битовая глубина : 16 бит
Метод сжатия : С потерями
Размер потока : 334 Мбайт (4%)
Заголовок : Авторский (одноголосый закадровый) Живов
Язык : Russian
Default : Нет
Forced : Нет

Аудио #3
Идентификатор : 4
Формат : AC-3
Формат/Информация : Audio Coding 3
Расширение режима : CM (complete main)
Параметр Endianness формата : Big
Идентификатор кодека : A_AC3
Продолжительность : 1 ч. 44 м.
Вид битрейта : Постоянный
Битрейт : 448 Кбит/сек
Каналы : 6 каналов
Расположение каналов : Front: L C R, Side: L R, LFE
Частота : 48,0 КГц
Битовая глубина : 16 бит
Метод сжатия : С потерями
Размер потока : 334 Мбайт (4%)
Заголовок : Оригинал
Язык : English
Default : Нет
Forced : Нет

Текст #1
Идентификатор : 5
Формат : UTF-8
Идентификатор кодека : S_TEXT/UTF8
Идентификатор кодека/Информация : UTF-8 Plain Text
Язык : Russian
Default : Нет
Forced : Нет

Текст #2
Идентификатор : 6
Формат : UTF-8
Идентификатор кодека : S_TEXT/UTF8
Идентификатор кодека/Информация : UTF-8 Plain Text
Язык : English
Default : Нет
Forced : Нет

Меню
00:00:00.000 : :Chapter 1
00:10:30.041 : :Chapter 2
00:19:57.958 : :Chapter 3
00:27:57.125 : :Chapter 4
00:38:30.625 : :Chapter 5
00:46:53.375 : :Chapter 6
00:54:20.500 : :Chapter 7
01:04:28.958 : :Chapter 8
01:14:49.625 : :Chapter 9
01:24:43.166 : :Chapter 10
01:34:26.833 : :Chapter 11
01:40:15.041 : :Chapter 12
загрузка...
Правила, инструкции, FAQ!!!
Торрент  Добавлен [02 сен 2013, 20:05] Скачать торрент
Скачать торрент
[ Размер 39.24 КБ / Просмотров 7 ]

Статус  
 
Размер  7.76 ГБ
Приватный: Нет (DHT включён)
.torrent скачан  446
Как залить торрент? | Как скачать Torrent? | Как смотреть и слушать онлайн?  


     Отправить личное сообщение
   
Страница 1 из 1
Показать сообщения за:  Поле сортировки  
Начать новую тему Ответить на тему

   Похожие торренты   Автор   Ответы   Просмотры   Последнее сообщение 
В этой теме нет новых непрочитанных сообщений. Скачать торрент Проверен Любовь и другие лекарства / Love and Other Drugs (2010) BDRip 1080p

в форуме 720p | 1080p, Размер: 7.76 ГБ, Здоровье: 76%

Гость

0
40|52

45
30

19 июл 2015, 18:21

Гость Перейти к последнему сообщению

В этой теме нет новых непрочитанных сообщений. Скачать торрент Другие / The Others (Алехандро Аменабар / Alejandro Amenabar) [2001, мистика, триллер, BDRip-AVC] Dub

в форуме Триллеры, Размер: 2.54 ГБ, Здоровье: 0%

Anonymous

0
0|0

32
0

29 апр 2014, 13:54

Anonymous Перейти к последнему сообщению

В этой теме нет новых непрочитанных сообщений. Скачать торрент Проверен Операция «Ы» и другие приключения Шурика (Леонид Гайдай) [1965, СССР, мелодрама, комедия, криминал, BDRip 1080p]

в форуме Наше кино (HD Video), Размер: 8.21 ГБ, Здоровье: 100%

Anonymous

0
56|19

59
1

12 апр 2015, 15:06

Anonymous Перейти к последнему сообщению

В этой теме нет новых непрочитанных сообщений. Скачать торрент Другие / The Others (Алехандро Аменабар / Alejandro Amenabar) [2001, США, Испания, Италия, Франция, Триллер, Драма, Мистика, BDRip] Dub

в форуме Триллеры, Размер: 1.46 ГБ, Здоровье: 0%

Anonymous

0
0|0

44
0

03 фев 2014, 12:33

Anonymous Перейти к последнему сообщению

В этой теме нет новых непрочитанных сообщений. Скачать торрент Проверен [iPad] Другие / The Others (Алехандро Аменабар/ Alejandro Amenábar) [2001, США, Франция, Италия, Испания, Ужасы, триллер, драма, детектив, BDRip, 576p] Dub + Original + sub (rus, eng)

в форуме Фильмы для iPod, iPhone, iPad, Размер: 1.79 ГБ, Здоровье: 100%

Anonymous

0
19|6

114
0

13 май 2015, 23:56

Anonymous Перейти к последнему сообщению



Сейчас этот форум просматривают: нет зарегистрированных пользователей и гости: 1


Вы не можете начинать темы
Вы не можете отвечать на сообщения
Вы не можете редактировать свои сообщения
Вы не можете удалять свои сообщения
Вы не можете добавлять вложения

Перейти:  

!ВНИМАНИЕ!
 Ресурс не предоставляет электронные версии произведений, а занимается лишь коллекционированием и каталогизацией ссылок, присылаемых и публикуемых на форуме нашими читателями. Если вы являетесь правообладателем какого-либо представленного материала и не желаете чтобы ссылка на него находилась в нашем каталоге, свяжитесь с нами и мы незамедлительно удалим её. Файлы для обмена на трекере предоставлены пользователями сайта, и администрация не несёт ответственности за их содержание. Просьба не заливать файлы, защищенные авторскими правами, а также файлы нелегального содержания!