На всех торрентах на трекере установлена скидка на скачивание в размере 100 процентов(а).
 Возможность скачивания торрента НЕ зависит от ограничений при низком ратио, низком аплоаде, требуемом ратио или требуемом аплоаде.


Начать новую тему Ответить на тему
Статистика раздачи
Размер: 3.09 ГБ | Добавлен: 19 авг 2013, 16:53 | Скачали: 0
Сидеров: 0  [0 байт/сек]    Личеров: 0  [0 байт/сек]
Пред. тема | След. тема 

Автор
Сообщение

СообщениеДобавлено: 19 авг 2013, 16:53 

Название: Слово вора
Оригинальное название: The Hard Word
Год выпуска: 2002
Жанр: Боевик, триллер, драма, комедия, криминал
Режиссер: Скотт Робертс

В ролях: Гай Пирс, Рэйчел Гриффитс, Роберт Тейлор, Джоэл Эдгертон, Дэмиен Ричардсон, Рондда Финдлтон, Кейт Эткинсон, Винс Колосимо, Пол Сонккила, Ким Джинджелл, Дориан Нконо, Стивен Уитэйкер, Торквил Нилсон, Дон Бриджес, Даг Боулз, Грег Флит, Росс Дэниелс, Питер Риган, Роджер Нив, Джейсон Гилкрист, Джаспер Бэйг, Ниниэн Ле Пейдж, Бет Бьюкэнэн, Фрэнк Кеннеди, Тони Джонс, Луиз Кроуфорд, Мишель Редфорд, Керри Коул, Колвин Робертс, Джорджи Бэкс

О фильме:
Три брата: Дэйл, тихий мясник Мэл и безбашенный Шэйн совершили немало ограблений. Теперь они планируют совершить налет прямо из тюрьмы. События начинают принимать опасный оборот, когда вдохновитель их грабежей Фрэнк решается на «большое дело».

Об этом плане узнают охранники. Если бы они захотели получить долю или предотвратить преступление, все было бы в порядке, но они собираются сделать дело сами! А как же разработчики плана? Способ известен давно — нет человека — нет проблемы…
Рейтинг R - Детям до 17 лет обязательно присутствие родителей
Рейтинг R получают фильмы, в содержании которых обязательно содержится материал, предназначенный только для взрослой аудитории. Родителям рекомендуется хорошо подумать, прежде чем посмотреть такой фильм вместе со своими детьми.

Фильм, получивший рейтинг R, скорее всего содержит сексуальные сцены, эпизоды с употреблением наркотиков, нецензурную брань, фрагменты с насилием и т.д.
Полное имя : H:ФильмСделать русский переводГотовые сделаные релизыSlovo.vora.2002.x264.BDRip.720p-MediaClub.mkv
Формат : Matroska
Версия формата : Version 2
Размер файла : 3,09 Гбайт
Продолжительность : 1 ч. 39 м.
Общий поток : 4454 Кбит/сек
Название фильма : Slovo vora (2002) BDRip 720p -MediaClub-=[Викс]=
Дата кодирования : UTC 2013-08-19 07:53:24
Программа кодирования : mkvmerge v5.8.0 ('No Sleep / Pillow') built on Sep 2 2012 15:37:04
Библиотека кодирования : libebml v1.2.3 + libmatroska v1.3.0

Видео
Идентификатор : 1
Формат : AVC
Формат/Информация : Advanced Video Codec
Профиль формата : High@L4.1
Параметр CABAC формата : Да
Параметр ReFrames формата : 8 кадров
Идентификатор кодека : V_MPEG4/ISO/AVC
Продолжительность : 1 ч. 39 м.
Битрейт : 3300 Кбит/сек
Ширина : 1280 пикселей
Высота : 562 пикселя
Соотношение сторон : 2,25:1
Режим частоты кадров : Постоянный
Частота кадров : 25,000 кадров/сек
Цветовое пространство : YUV
Субдискретизация насыщенности : 4:2:0
Битовая глубина : 8 бит
Тип развёртки : Прогрессивная
Бит/(Пиксели*Кадры) : 0.183
Размер потока : 2,23 Гбайт (72%)
Библиотека кодирования : x264 core 133 r2334 a3ac64b
Настройки программы : cabac=1 / ref=8 / deblock=1:-3:-3 / analyse=0x3:0x113 / me=umh / subme=11 / psy=1 / psy_rd=1.00:0.00 / mixed_ref=1 / me_range=48 / chroma_me=1 / trellis=2 / 8x8dct=1 / cqm=0 / deadzone=21,11 / fast_pskip=0 / chroma_qp_offset=-2 / threads=6 / lookahead_threads=1 / sliced_threads=0 / nr=0 / decimate=0 / interlaced=0 / bluray_compat=0 / constrained_intra=0 / bframes=8 / b_pyramid=2 / b_adapt=2 / b_bias=0 / direct=3 / weightb=1 / open_gop=0 / weightp=2 / keyint=250 / keyint_min=24 / scenecut=40 / intra_refresh=0 / rc_lookahead=40 / rc=2pass / mbtree=0 / bitrate=3300 / ratetol=1.0 / qcomp=0.60 / qpmin=0 / qpmax=69 / qpstep=4 / cplxblur=20.0 / qblur=0.5 / vbv_maxrate=50000 / vbv_bufsize=52500 / nal_hrd=none / ip_ratio=1.40 / pb_ratio=1.30 / aq=1:0.80
Язык : English
Default : Да
Forced : Нет

Аудио #1
Идентификатор : 2
Формат : AC-3
Формат/Информация : Audio Coding 3
Расширение режима : CM (complete main)
Параметр Endianness формата : Big
Идентификатор кодека : A_AC3
Продолжительность : 1 ч. 39 м.
Вид битрейта : Постоянный
Битрейт : 384 Кбит/сек
Каналы : 6 каналов
Расположение каналов : Front: L C R, Side: L R, LFE
Частота : 48,0 КГц
Битовая глубина : 16 бит
Метод сжатия : С потерями
Размер потока : 273 Мбайт (9%)
Язык : Russian
Default : Да
Forced : Нет

Аудио #2
Идентификатор : 3
Формат : DTS
Формат/Информация : Digital Theater Systems
Режим : 16
Параметр Endianness формата : Big
Идентификатор кодека : A_DTS
Продолжительность : 1 ч. 39 м.
Вид битрейта : Постоянный
Битрейт : 768 Кбит/сек
Каналы : 6 каналов
Расположение каналов : Front: L C R, Side: L R, LFE
Частота : 48,0 КГц
Битовая глубина : 16 бит
Метод сжатия : С потерями
Размер потока : 546 Мбайт (17%)
Язык : English
Default : Нет
Forced : Нет

Текст
Идентификатор : 4
Формат : UTF-8
Идентификатор кодека : S_TEXT/UTF8
Идентификатор кодека/Информация : UTF-8 Plain Text
Язык : Russian
Default : Да
Forced : Нет

Меню
00:00:00.000 : :Chapter 01
00:04:20.000 : :Chapter 02
00:17:40.000 : :Chapter 03
00:27:55.000 : :Chapter 04
00:34:00.000 : :Chapter 05
00:40:27.000 : :Chapter 06
00:45:55.000 : :Chapter 07
00:54:05.000 : :Chapter 08
01:02:57.000 : :Chapter 09
01:12:41.000 : :Chapter 10
01:20:01.000 : :Chapter 11
01:36:22.000 : :Chapter 12
01:39:22.920 : :Chapter 13
x264 [info]: frame I:1158 Avg QP:14.80 size: 75054
x264 [info]: frame P:34806 Avg QP:17.76 size: 32082
x264 [info]: frame B:113108 Avg QP:19.78 size: 11103



Страна: Австралия, Великобритания
Студия: Alibi Films, Australian Film Finance Corporation (AFFC), Wildheart Films
Продолжительность: 01:39:24
Перевод: Профессиональный многоголосый


Кодек: x264
Качество: BDRip 720p
Видео: MPEG-4 AVC, 3300 Кбит/с, 1280x562, 25.000 кадр/с
Звук:
Аудио #1: Русский (AC3, 6 ch, 384 Кбит/с) / Профессиональный многоголосый
Аудио #2: Английский (DTS, 6 ch, 768 Кбит/с)
Субтитры: Русские

Семпл






Релиз от: Работа с аудио - Викс
загрузка...
Правила, инструкции, FAQ!!!
Торрент  Добавлен [19 авг 2013, 16:53] Скачать торрент
Скачать торрент
[ Размер 16.8 КБ / Просмотров 4 ]

Статус  
 
Размер  3.09 ГБ
Приватный: Нет (DHT включён)
.torrent скачан  0
Как залить торрент? | Как скачать Torrent? | Как смотреть и слушать онлайн?  


     Отправить личное сообщение
   
Страница 1 из 1
Показать сообщения за:  Поле сортировки  
Начать новую тему Ответить на тему

   Похожие торренты   Автор   Ответы   Просмотры   Последнее сообщение 
В этой теме нет новых непрочитанных сообщений. Скачать торрент Проверен Кодекс вора / The Code (2008) BDRip 720p | D, P, P2

в форуме 720p | 1080p, Размер: 8.03 ГБ, Здоровье: 48%

Гость

0
99|204

59
63

06 фев 2016, 12:18

Гость Перейти к последнему сообщению

В этой теме нет новых непрочитанных сообщений. Скачать торрент Проверен (Hard rock/Heavy blues rock) Freedom - Is More Than A Word (1972) - 2002, FLAC (tracks+.cue), lossless

в форуме Classic Rock & Hard Rock, Размер: 259.13 МБ, Здоровье: 0%

Anonymous

0
0|0

0
0

05 сен 2016, 18:27

Anonymous Перейти к последнему сообщению

В этой теме нет новых непрочитанных сообщений. Скачать торрент Проверен [SACD-R][OF] Jaco Pastorius Big Band - Word Of Mouth Revisited - 2003; The Word Is Out! - 2006 (2-Disc Set) (Punk Jazz)

в форуме DTS CD / SACD-R, Размер: 8.73 ГБ, Здоровье: 100%

Anonymous

0
40|23

153
3

02 июл 2016, 01:53

Anonymous Перейти к последнему сообщению

В этой теме нет новых непрочитанных сообщений. Скачать торрент Проверен (Rock) [LP] [24/192] Freedom - Is More Than A Word - 1972 Reissue 2002, FLAC (image+.cue)

в форуме Зарубежный рок (оцифровки), Размер: 1.48 ГБ, Здоровье: 0%

Anonymous

0
0|0

0
0

25 авг 2016, 19:12

Anonymous Перейти к последнему сообщению

В этой теме нет новых непрочитанных сообщений. Скачать торрент Проверен (Blues-Rock / Gospel Blues / Instrumental) The Word - The Word - 2001, (Robert Randolph, John Medeski, North Mississippi Allstars), (tracks+.cue), lossless

в форуме Blues (Texas, Chicago, Modern and Others), Размер: 263.52 МБ, Здоровье: 0%

Anonymous

0
0|0

1
0

16 окт 2016, 16:32

Anonymous Перейти к последнему сообщению



Сейчас этот форум просматривают: нет зарегистрированных пользователей и гости: 1


Вы не можете начинать темы
Вы не можете отвечать на сообщения
Вы не можете редактировать свои сообщения
Вы не можете удалять свои сообщения
Вы не можете добавлять вложения

Перейти:  

!ВНИМАНИЕ!
 Ресурс не предоставляет электронные версии произведений, а занимается лишь коллекционированием и каталогизацией ссылок, присылаемых и публикуемых на форуме нашими читателями. Если вы являетесь правообладателем какого-либо представленного материала и не желаете чтобы ссылка на него находилась в нашем каталоге, свяжитесь с нами и мы незамедлительно удалим её. Файлы для обмена на трекере предоставлены пользователями сайта, и администрация не несёт ответственности за их содержание. Просьба не заливать файлы, защищенные авторскими правами, а также файлы нелегального содержания!