На всех торрентах на трекере установлена скидка на скачивание в размере 100 процентов(а).
 Возможность скачивания торрента НЕ зависит от ограничений при низком ратио, низком аплоаде, требуемом ратио или требуемом аплоаде.


Начать новую тему Ответить на тему
Статистика раздачи
Размер: 5.24 ГБ | Добавлен: 13 авг 2013, 20:19 | Скачали: 0
Сидеров: 0  [0 байт/сек]    Личеров: 0  [0 байт/сек]
Пред. тема | След. тема 

Автор
Сообщение

СообщениеДобавлено: 13 авг 2013, 20:19 

Название: Большая свадьба
Оригинальное название: The Big Wedding
Год выхода: 2013
Жанр: комедия
Режиссер: Джастин Закэм

В ролях: Роберт Де Ниро, Дайан Китон, Кэтрин Хайгл, Сьюзен Сарандон, Бен Барнс, Аманда Сайфред, Тофер Грейс, Ана Айора, Робин Уильямс, Патриция Рэй

О фильме: История о современной семье, пытающейся пережить выходные свадебного торжества, которые могут обернуться полным крахом для них. К удивлению своих детей и друзей давно разведенные Дон и Элли Гриффин вынуждены притворяться счастливыми ради свадьбы своего приемного сына, после того как его ультраконсервативная биологическая мать неожиданно решает пролететь через пол мира, чтобы принять участие в этом торжестве…



Выпущено: США
Продолжительность: 01:29:32
Озвучивание: Дублированное [лицензия]


Формат: MKV
Видео: 1280x534 at 23.976 fps, x264@L4.1, crf, ~5 930 kbps avg
Аудио#1: Russian: 48 kHz/16-bit, DTS, 3/2 (L,C,R,l,r) + LFE ch, ~768.00 kbps avg |Дубляж, BD RUS|
Аудио#2: English: 48 kHz/16-bit, DTS, 3/2 (L,C,R,l,r) + LFE ch, ~1509.00 kbps avg
Субтитры: English

General
Format : Matroska
Format version : Version 2
File size : 5.24 GiB
Duration : 1h 29mn
Overall bit rate : 8 374 Kbps
Movie name : HDCLUB present " The Big Wedding (2013)"
Encoded date : UTC 2013-08-12 20:01:41
Writing application : mkvmerge v5.8.0 ('No Sleep / Pillow') built on Sep 2 2012 15:37:04
Writing library : libebml v1.2.3 + libmatroska v1.3.0

Video
ID : 1
Format : AVC
Format/Info : Advanced Video Codec
Format profile : High@L4.1
Format settings, CABAC : Yes
Format settings, ReFrames : 12 frames
Codec ID : V_MPEG4/ISO/AVC
Duration : 1h 29mn
Bit rate : 5 943 Kbps
Width : 1 280 pixels
Height : 534 pixels
Display aspect ratio : 2.40:1
Frame rate : 23.976 fps
Color space : YUV
Chroma subsampling : 4:2:0
Bit depth : 8 bits
Scan type : Progressive
Bits/(Pixel*Frame) : 0.363
Stream size : 3.72 GiB (71%)
Writing library : x264 core 130 r2273 b3065e6
Encoding settings : cabac=1 / ref=12 / deblock=1:-3:-3 / analyse=0x3:0x133 / me=umh / subme=10 / psy=1 / psy_rd=1.30:0.00 / mixed_ref=1 / me_range=48 / chroma_me=1 / trellis=2 / 8x8dct=1 / cqm=0 / deadzone=21,11 / fast_pskip=0 / chroma_qp_offset=-2 / threads=12 / lookahead_threads=2 / sliced_threads=0 / nr=0 / decimate=0 / interlaced=0 / bluray_compat=0 / constrained_intra=0 / bframes=9 / b_pyramid=2 / b_adapt=2 / b_bias=0 / direct=3 / weightb=1 / open_gop=0 / weightp=2 / keyint=250 / keyint_min=23 / scenecut=40 / intra_refresh=0 / rc=crf / mbtree=0 / crf=15.0 / qcomp=0.60 / qpmin=0 / qpmax=69 / qpstep=4 / ip_ratio=1.30 / pb_ratio=1.30 / aq=1:0.70
Language : English
Default : Yes
Forced : No

Audio #1
ID : 2
Format : DTS
Format/Info : Digital Theater Systems
Codec ID : A_DTS
Duration : 1h 29mn
Bit rate mode : Constant
Bit rate : 755 Kbps
Channel(s) : 6 channels
Channel positions : Front: L C R, Side: L R, LFE
Sampling rate : 48.0 KHz
Bit depth : 16 bits
Compression mode : Lossy
Stream size : 483 MiB (9%)
Title : DTS 5.1 @ 768 kbps - Dubbed [BD RUS]
Language : Russian
Default : Yes
Forced : No

Audio #2
ID : 3
Format : DTS
Format/Info : Digital Theater Systems
Codec ID : A_DTS
Duration : 1h 29mn
Bit rate mode : Constant
Bit rate : 1 510 Kbps
Channel(s) : 6 channels
Channel positions : Front: L C R, Side: L R, LFE
Sampling rate : 48.0 KHz
Bit depth : 16 bits
Compression mode : Lossy
Stream size : 967 MiB (18%)
Title : DTS 5.1 @ 1509 kbps
Language : English
Default : No
Forced : No

Text
ID : 4
Format : UTF-8
Codec ID : S_TEXT/UTF8
Codec ID/Info : UTF-8 Plain Text
Language : English
Default : No
Forced : No

Menu
00:00:00.000 : en:00:00:00.000
00:07:27.739 : en:00:07:27.739
00:12:42.887 : en:00:12:42.887
00:20:57.214 : en:00:20:57.214
00:28:32.669 : en:00:28:32.669
00:36:18.468 : en:00:36:18.468
00:43:38.366 : en:00:43:38.366
00:51:07.982 : en:00:51:07.982
00:59:10.464 : en:00:59:10.464
01:08:03.246 : en:01:08:03.246
01:16:01.056 : en:01:16:01.056
01:22:41.999 : en:01:22:41.999
загрузка...
Правила, инструкции, FAQ!!!
Торрент  Добавлен [13 авг 2013, 20:19] Скачать торрент
Скачать торрент
[ Размер 13.59 КБ / Просмотров 10 ]

Статус  
 
Размер  5.24 ГБ
Приватный: Нет (DHT включён)
.torrent скачан  0
Как залить торрент? | Как скачать Torrent? | Как смотреть и слушать онлайн?  


     Отправить личное сообщение
   
Страница 1 из 1
Показать сообщения за:  Поле сортировки  
Начать новую тему Ответить на тему

   Похожие торренты   Автор   Ответы   Просмотры   Последнее сообщение 
В этой теме нет новых непрочитанных сообщений. Скачать торрент Свадьба по обмену (2011) BDRip-AVC | Лицензия

в форуме Драмы, Мелодрамы, Размер: 1.43 ГБ, Здоровье: 0%

Anonymous

0
0|0

73
0

22 фев 2014, 07:46

Anonymous Перейти к последнему сообщению

В этой теме нет новых непрочитанных сообщений. Скачать торрент Проверен Безумная свадьба / Qu'est-ce qu'on a fait au Bon Dieu? (2014) BDRip 720p | Чистый звук

в форуме 720p | 1080p, Размер: 4.5 ГБ, Здоровье: 100%

Anonymous

0
993|100

56
5597

23 сен 2014, 06:24

Anonymous Перейти к последнему сообщению

В этой теме нет новых непрочитанных сообщений. Скачать торрент Проверен Джо / Joe (2013) BDRip 720p | P | лицензия

в форуме 720p | 1080p, Размер: 5.83 ГБ, Здоровье: 100%

Anonymous

0
36|0

46
296

05 июн 2014, 12:38

Anonymous Перейти к последнему сообщению

В этой теме нет новых непрочитанных сообщений. Скачать торрент РЭД 2 / Red 2 (2013) BDRip 720p | Лицензия

в форуме 720p | 1080p, Размер: 2.96 ГБ, Здоровье: 100%

Anonymous

0
20|1

80
0

20 дек 2013, 08:52

Anonymous Перейти к последнему сообщению

В этой теме нет новых непрочитанных сообщений. Скачать торрент Ку! Кин-дза-дза (2013) BDRip 720p | Лицензия

в форуме Отечественные мультфильмы (HD Video), Размер: 1.55 ГБ, Здоровье: 100%

Anonymous

0
54|3

187
405

21 апр 2014, 16:23

Anonymous Перейти к последнему сообщению



Сейчас этот форум просматривают: нет зарегистрированных пользователей и гости: 1


Вы не можете начинать темы
Вы не можете отвечать на сообщения
Вы не можете редактировать свои сообщения
Вы не можете удалять свои сообщения
Вы не можете добавлять вложения

Перейти:  

!ВНИМАНИЕ!
 Ресурс не предоставляет электронные версии произведений, а занимается лишь коллекционированием и каталогизацией ссылок, присылаемых и публикуемых на форуме нашими читателями. Если вы являетесь правообладателем какого-либо представленного материала и не желаете чтобы ссылка на него находилась в нашем каталоге, свяжитесь с нами и мы незамедлительно удалим её. Файлы для обмена на трекере предоставлены пользователями сайта, и администрация не несёт ответственности за их содержание. Просьба не заливать файлы, защищенные авторскими правами, а также файлы нелегального содержания!