На всех торрентах на трекере установлена скидка на скачивание в размере 100 процентов(а).
 Возможность скачивания торрента НЕ зависит от ограничений при низком ратио, низком аплоаде, требуемом ратио или требуемом аплоаде.


Начать новую тему Ответить на тему
Статистика раздачи
Размер: 9.11 ГБ | Добавлен: 12 авг 2013, 23:20 | Скачали: 0
Сидеров: 0  [0 байт/сек]    Личеров: 0  [0 байт/сек]
Пред. тема | След. тема 

Автор
Сообщение

СообщениеДобавлено: 12 авг 2013, 23:20 

Название: S.W.A.T.: Спецназ города ангелов
Оригинальное название: S.W.A.T.
Год выхода: 2003
Жанр: Боевик, триллер, криминал
Режиссер: Кларк Джонсон

В ролях: Сэмюэл Л. Джексон, Колин Фаррелл, Мишель Родригес, LL Кул Джей, Джош Чарльз, Джереми Реннер, Брайан Ван Холт, Оливье Мартинес, Рег Э. Кэти, Ларри Поиндекстер

О фильме:
В полиции США существует множество видов спецназа, но самым крутым по праву считается Особое подразделение, отбор в ряды которого является настоящим испытанием. Джима Стрита из лос-анджелесской полиции зачисляют в состав Особого подразделения.
После обучения и тренировок молодое пополнение во главе с командиром Хондо ждет первое испытание — перевозка известного наркобарона из тюрьмы в руки ФБР.
Простое на первый взгляд задание осложняется тем, что богатый пленник назначает за свое освобождение невероятный куш — 100 миллионов долларов! Поэтому на всем пути следования подразделению предстоит отбивать непрекращающиеся атаки желающих получить награду…



Страна: США
Студия: Camelot Pictures, Columbia Pictures Corporation
Продолжительность: 01:57:17
Перевод: Дублированный + Оригинал


Кодек: x264
Качество: BDRip 1080p
Видео: 1920х800 (2.40:1), 8428 Kbps, 23.976 fps, 0.229 bit/pixel
Аудио #1: 48.0 kHz, AC3 Dolby Digital, 3/2 (L,C,R,l,r) + LFE ch, 640 kbps [Дубляж]
Аудио #2: 48.0 kHz, AC3 Dolby Digital, 3/2 (L,C,R,l,r) + LFE ch, 640 kbps [Английский]
Субтитры: Русские, английские
Размер: 7.95 GB

Отдельно в папке:
Аудио #3: 48.0 kHz, AC3 Dolby Digital, 3/2 (L,C,R,l,r) + LFE ch, 384 kbps [Многоголосый]
Аудио #4: 48.0 kHz, AC3 Dolby Digital, 3/2 (L,C,R,l,r) + LFE ch, 384 kbps [Двухголосый]
Аудио #5: 48.0 kHz, AC3 Dolby Digital, 3/2 (L,C,R,l,r) + LFE ch, 640 kbps [Авторский, Ю. Живов]

Семпл



x264 [info]: frame I:1333 Avg QP:16.14 size:155255
x264 [info]: frame P:46550 Avg QP:17.84 size: 70550
x264 [info]: frame B:120837 Avg QP:19.87 size: 32445
General
Unique ID : 190352499963870896981247206889072820057 (0x8F348ED6EBDAE82B9372643F596AFF59)
Complete name : E:S.W.A.T.2003.x264.BDRip.1080pS.W.A.T.2003.x264.BDRip.1080p.mkv
Format : Matroska
Format version : Version 4 / Version 2
File size : 7.95 GiB
Duration : 1h 57mn
Overall bit rate : 9 708 Kbps
Encoded date : UTC 2013-08-12 16:58:16
Writing application : mkvmerge v6.3.0 ('You can't stop me!') built on Jun 28 2013 20:09:41
Writing library : libebml v1.3.0 + libmatroska v1.4.0

Video
ID : 1
Format : AVC
Format/Info : Advanced Video Codec
Format profile : High@L4.1
Format settings, CABAC : Yes
Format settings, ReFrames : 5 frames
Codec ID : V_MPEG4/ISO/AVC
Duration : 1h 57mn
Bit rate : 8 428 Kbps
Width : 1 920 pixels
Height : 800 pixels
Display aspect ratio : 2.40:1
Frame rate mode : Constant
Frame rate : 23.976 fps
Color space : YUV
Chroma subsampling : 4:2:0
Bit depth : 8 bits
Scan type : Progressive
Bits/(Pixel*Frame) : 0.229
Stream size : 6.75 GiB (85%)
Writing library : x264 core 135 r2345 f0c1c53
Encoding settings : cabac=1 / ref=5 / deblock=1:0:0 / analyse=0x3:0x133 / me=tesa / subme=11 / psy=1 / psy_rd=1.00:0.07 / mixed_ref=1 / me_range=32 / chroma_me=1 / trellis=2 / 8x8dct=1 / cqm=0 / deadzone=21,11 / fast_pskip=0 / chroma_qp_offset=-3 / threads=12 / lookahead_threads=1 / sliced_threads=0 / nr=0 / decimate=0 / interlaced=0 / bluray_compat=0 / constrained_intra=0 / bframes=6 / b_pyramid=2 / b_adapt=2 / b_bias=0 / direct=3 / weightb=1 / open_gop=0 / weightp=2 / keyint=240 / keyint_min=23 / scenecut=40 / intra_refresh=0 / rc=2pass / mbtree=0 / bitrate=8428 / ratetol=1.0 / qcomp=0.60 / qpmin=0 / qpmax=69 / qpstep=4 / cplxblur=20.0 / qblur=0.5 / ip_ratio=1.40 / pb_ratio=1.30 / aq=1:1.00
Language : English
Default : Yes
Forced : No

Audio #1
ID : 2
Format : AC-3
Format/Info : Audio Coding 3
Mode extension : CM (complete main)
Format settings, Endianness : Big
Codec ID : A_AC3
Duration : 1h 57mn
Bit rate mode : Constant
Bit rate : 640 Kbps
Channel(s) : 6 channels
Channel positions : Front: L C R, Side: L R, LFE
Sampling rate : 48.0 KHz
Bit depth : 16 bits
Compression mode : Lossy
Stream size : 537 MiB (7%)
Title : AC3 5.1ch 640 kbps - Дубляж
Language : Russian
Default : Yes
Forced : No

Audio #2
ID : 3
Format : AC-3
Format/Info : Audio Coding 3
Mode extension : CM (complete main)
Format settings, Endianness : Big
Codec ID : A_AC3
Duration : 1h 57mn
Bit rate mode : Constant
Bit rate : 640 Kbps
Channel(s) : 6 channels
Channel positions : Front: L C R, Side: L R, LFE
Sampling rate : 48.0 KHz
Bit depth : 16 bits
Compression mode : Lossy
Stream size : 537 MiB (7%)
Title : AC3 5.1ch 640 kbps - Английский
Language : English
Default : No
Forced : No

Text #1
ID : 4
Format : UTF-8
Codec ID : S_TEXT/UTF8
Codec ID/Info : UTF-8 Plain Text
Title : Русские
Language : Russian
Default : No
Forced : No

Text #2
ID : 5
Format : UTF-8
Codec ID : S_TEXT/UTF8
Codec ID/Info : UTF-8 Plain Text
Title : Английские
Language : English
Default : No
Forced : No
загрузка...
Правила, инструкции, FAQ!!!
Торрент  Добавлен [12 авг 2013, 23:20] Скачать торрент
Скачать торрент
[ Размер 23.57 КБ / Просмотров 4 ]

Статус  
 
Размер  9.11 ГБ
Приватный: Нет (DHT включён)
.torrent скачан  0
Как залить торрент? | Как скачать Torrent? | Как смотреть и слушать онлайн?  


     Отправить личное сообщение
   
Страница 1 из 1
Показать сообщения за:  Поле сортировки  
Начать новую тему Ответить на тему

   Похожие торренты   Автор   Ответы   Просмотры   Последнее сообщение 
В этой теме нет новых непрочитанных сообщений. Скачать торрент Анжелика, маркиза ангелов / Angelique, marquise des anges (1964) BDRip 1080p | D, P

в форуме 720p | 1080p, Размер: 11.52 ГБ, Здоровье: 0%

Anonymous

0
0|0

51
0

20 янв 2014, 17:36

Anonymous Перейти к последнему сообщению

В этой теме нет новых непрочитанных сообщений. Скачать торрент Проверен Сборник | Спецназ. Серия в 563 книгах [2003-2012] [FB2]

в форуме Многоавторские сборники, Размер: 448.11 МБ, Здоровье: 100%

Anonymous

0
93|50

102
6

18 авг 2014, 15:01

Anonymous Перейти к последнему сообщению

В этой теме нет новых непрочитанных сообщений. Скачать торрент Книжная серия | Спецназ [689 книг] (2003-2013) [FB2]

в форуме Детективы и Боевики, Размер: 563.14 МБ, Здоровье: 100%

Anonymous

0
200|9

312
33

27 фев 2014, 23:01

Anonymous Перейти к последнему сообщению

В этой теме нет новых непрочитанных сообщений. Скачать торрент Проверен Безумный спецназ / The Men Who Stare at Goats (2009) BDRip 720p | Лицензия

в форуме 720p | 1080p, Размер: 2.07 ГБ, Здоровье: 8%

Anonymous

0
10|113

65
12

16 ноя 2014, 19:58

Anonymous Перейти к последнему сообщению

В этой теме нет новых непрочитанных сообщений. Скачать торрент Проверен Космический спецназ Гарфилда 3Д / Garfield's Pet Force 3D (Марк А.З. Диппе / Mark A.Z. Dippé) [2009, комедия, семейный, мультфильм, BDremux 1080p] BD3D

в форуме 3D Мультфильмы, Размер: 17.73 ГБ, Здоровье: 0%

Anonymous

0
0|0

3
0

07 сен 2016, 17:32

Anonymous Перейти к последнему сообщению



Сейчас этот форум просматривают: нет зарегистрированных пользователей и гости: 1


Вы не можете начинать темы
Вы не можете отвечать на сообщения
Вы не можете редактировать свои сообщения
Вы не можете удалять свои сообщения
Вы не можете добавлять вложения

Перейти:  

!ВНИМАНИЕ!
 Ресурс не предоставляет электронные версии произведений, а занимается лишь коллекционированием и каталогизацией ссылок, присылаемых и публикуемых на форуме нашими читателями. Если вы являетесь правообладателем какого-либо представленного материала и не желаете чтобы ссылка на него находилась в нашем каталоге, свяжитесь с нами и мы незамедлительно удалим её. Файлы для обмена на трекере предоставлены пользователями сайта, и администрация не несёт ответственности за их содержание. Просьба не заливать файлы, защищенные авторскими правами, а также файлы нелегального содержания!