На всех торрентах на трекере установлена скидка на скачивание в размере 100 процентов(а).
 Возможность скачивания торрента НЕ зависит от ограничений при низком ратио, низком аплоаде, требуемом ратио или требуемом аплоаде.


Начать новую тему Ответить на тему
Статистика раздачи
Размер: 7.95 ГБ | Добавлен: 12 авг 2013, 22:46 | Скачали: 1
Сидеров: 0  [0 байт/сек]    Личеров: 1  [0 байт/сек]
Пред. тема | След. тема 

Автор
Сообщение

СообщениеДобавлено: 12 авг 2013, 22:46 

Название: Вороны: Начало
Оригинальное название: Crows zero
Год выхода: 2007
Жанр: Боевик
Режиссер: Такаши Миике

В ролях: Шун Огури, Ёсиюки Ябе, Меиса Куроки, Такаюки Ямада, Сансей Шиоми, Кеничи Эндо, Горо Кишитани, Мотоки Фуками, Соускэ Такаока, Канаме Эндо, Мотоки Фуками, Кента Киритани, Ю Коянаги, Ютака Мацусигэ
Сюжет фильма:

Судзуран — школа, за всю историю которой ни один, даже самый борзый школьник, не сумел забраться на самый верх, дабы управлять остальными. Но однажды, в своем стремлении завоевать «Воронью школу», здесь схлестываются двое: Серидзава, который держит всех в страхе уже не первый год, и новичок Гендзи. Жажда власти ведет их к последнему бою, и этот путь пролегает через покорение более слабых, мордобои и подставы. Но сколько бы ни было в людях жестокости, человеческие чувства живут в них. Есть тут место и дружбе, и самопожертвованию, и сплоченности, без которых не может существовать никакая система. Но, по закону жанра, должен остаться только один…



Выпущено: Япония
Продолжительность: 02:10:02
Перевод: Профессиональный Многоголосый закадровый, R5

Качество: BDRip 1080p (исходник Blu-ray Disc)
Видео: 1920х1036, 8 369 Кбит/сек, 23.976 кадр/сек, 1.85:1, AVC, x264, 0.175 Бит/(Пиксели*Кадры), 2-pass
Аудио1: AC-3, 384 Кбит/сек, 6 канала(ов), 48,0 КГц - Профессиональный Многоголосый закадровый, R5
Чаптеры нет
Субтитры: Русские, английские




Format : Matroska
Format version : Version 4 / Version 2
File size : 7.95 GiB
Duration : 2h 10mn
Overall bit rate : 8 753 Kbps
Movie name : Вороны: Начало.(2007).BDRip.1080p.NoLimits-Team
Encoded date : UTC 2013-08-12 05:15:14
Writing application : mkvmerge v6.3.0 ('You can't stop me!') built on Jun 28 2013 20:09:41
Writing library : libebml v1.3.0 + libmatroska v1.4.0

Video
ID : 1
Format : AVC
Format/Info : Advanced Video Codec
Format profile : High@L4.1
Format settings, CABAC : Yes
Format settings, ReFrames : 4 frames
Codec ID : V_MPEG4/ISO/AVC
Duration : 2h 10mn
Bit rate : 8 369 Kbps
Width : 1 920 pixels
Height : 1 036 pixels
Display aspect ratio : 1.85:1
Frame rate mode : Constant
Frame rate : 23.976 fps
Color space : YUV
Chroma subsampling : 4:2:0
Bit depth : 8 bits
Scan type : Progressive
Bits/(Pixel*Frame) : 0.175
Stream size : 7.44 GiB (94%)
Title : Вороны: Начало.(2007).BDRip.1080p.NoLimits-Team Release_denis_100
Writing library : x264 core 135 r2345 f0c1c53
Encoding settings : cabac=1 / ref=4 / deblock=1:0:0 / analyse=0x3:0x113 / me=umh / subme=11 / psy=1 / psy_rd=1.00:0.15 / mixed_ref=1 / me_range=32 / chroma_me=1 / trellis=2 / 8x8dct=1 / cqm=0 / deadzone=21,11 / fast_pskip=0 / chroma_qp_offset=-3 / threads=6 / lookahead_threads=1 / sliced_threads=0 / nr=0 / decimate=0 / interlaced=0 / bluray_compat=0 / constrained_intra=0 / bframes=8 / b_pyramid=2 / b_adapt=2 / b_bias=0 / direct=3 / weightb=1 / open_gop=0 / weightp=2 / keyint=240 / keyint_min=23 / scenecut=40 / intra_refresh=0 / rc=2pass / mbtree=0 / bitrate=8369 / ratetol=1.0 / qcomp=0.60 / qpmin=0 / qpmax=69 / qpstep=4 / cplxblur=20.0 / qblur=0.5 / ip_ratio=1.40 / pb_ratio=1.30 / aq=1:0.95
Language : English
Default : Yes
Forced : No

Audio
ID : 2
Format : AC-3
Format/Info : Audio Coding 3
Mode extension : CM (complete main)
Format settings, Endianness : Big
Codec ID : A_AC3
Duration : 2h 10mn
Bit rate mode : Constant
Bit rate : 384 Kbps
Channel(s) : 6 channels
Channel positions : Front: L C R, Side: L R, LFE
Sampling rate : 48.0 KHz
Bit depth : 16 bits
Compression mode : Lossy
Stream size : 357 MiB (4%)
Title : Профессиональный Многоголосый закадровый, R5
Default : Yes
Forced : No

Text #1
ID : 3
Format : UTF-8
Codec ID : S_TEXT/UTF8
Codec ID/Info : UTF-8 Plain Text
Title : Русские
Language : Russian
Default : No
Forced : No

Text #2
ID : 4
Format : UTF-8
Codec ID : S_TEXT/UTF8
Codec ID/Info : UTF-8 Plain Text
Title : Английские
Language : English
Default : No
Forced : No


x264 [info]: frame I:1058 Avg QP:16.72 size:169827
x264 [info]: frame P:51493 Avg QP:19.41 size: 73385
x264 [info]: frame B:134512 Avg QP:20.31 size: 31232

Релиз Группа: & Автор Рипа:

загрузка...
Правила, инструкции, FAQ!!!
Торрент  Добавлен [12 авг 2013, 22:46] Скачать торрент
Скачать торрент
[ Размер 40.2 КБ / Просмотров 11 ]

Статус  
 
Размер  7.95 ГБ
Приватный: Нет (DHT включён)
.torrent скачан  1
Как залить торрент? | Как скачать Torrent? | Как смотреть и слушать онлайн?  


     Отправить личное сообщение
   
Страница 1 из 1
Показать сообщения за:  Поле сортировки  
Начать новую тему Ответить на тему

   Похожие торренты   Автор   Ответы   Просмотры   Последнее сообщение 
В этой теме нет новых непрочитанных сообщений. Скачать торрент Проверен Вороны 3 / Crows Explode (2014) HDRip | L2

в форуме Боевики, Размер: 1.46 ГБ, Здоровье: 100%

Anonymous

0
230|4

24
16

10 ноя 2014, 07:21

Anonymous Перейти к последнему сообщению

В этой теме нет новых непрочитанных сообщений. Скачать торрент Проверен Геракл: Начало легенды 3Д / The Legend of Hercules 3D (Ренни Харлин / Renny Harlin) [2013, Боевик, Фэнтези, BDrip, 1080p] OverUnder / Вертикальная стереопара

в форуме HD-Video в 3D, Размер: 12.23 ГБ, Здоровье: 100%

Anonymous

0
1|0

109
0

10 июл 2014, 13:58

Anonymous Перейти к последнему сообщению

В этой теме нет новых непрочитанных сообщений. Скачать торрент Проверен (Blues Rock | Psychedelic) The Lone Crows - The Lone Crows - 2013, MP3, 320 kbps

в форуме Classic Rock & Hard Rock, Размер: 112.98 МБ, Здоровье: 0%

Anonymous

0
0|0

0
0

13 ноя 2016, 19:07

Anonymous Перейти к последнему сообщению

В этой теме нет новых непрочитанных сообщений. Скачать торрент Проверен Смешарики. Начало в 3Д / 3D (Денис Чернов) [2011, мультфильм, комедия, приключения, Blu-Ray Disc, 1080p] BD3D

в форуме 3D Мультфильмы, Размер: 28.51 ГБ, Здоровье: 100%

Anonymous

0
9|3

9
0

07 сен 2016, 18:22

Anonymous Перейти к последнему сообщению

В этой теме нет новых непрочитанных сообщений. Скачать торрент Начало / Inception (2010) BDRip

в форуме Фантастика, Фэнтези, Размер: 1.46 ГБ, Здоровье: 0%

Anonymous

0
0|0

38
1

09 янв 2014, 00:15

Anonymous Перейти к последнему сообщению



Сейчас этот форум просматривают: нет зарегистрированных пользователей и гости: 1


Вы не можете начинать темы
Вы не можете отвечать на сообщения
Вы не можете редактировать свои сообщения
Вы не можете удалять свои сообщения
Вы не можете добавлять вложения

Перейти:  

!ВНИМАНИЕ!
 Ресурс не предоставляет электронные версии произведений, а занимается лишь коллекционированием и каталогизацией ссылок, присылаемых и публикуемых на форуме нашими читателями. Если вы являетесь правообладателем какого-либо представленного материала и не желаете чтобы ссылка на него находилась в нашем каталоге, свяжитесь с нами и мы незамедлительно удалим её. Файлы для обмена на трекере предоставлены пользователями сайта, и администрация не несёт ответственности за их содержание. Просьба не заливать файлы, защищенные авторскими правами, а также файлы нелегального содержания!