На всех торрентах на трекере установлена скидка на скачивание в размере 100 процентов(а).
 Возможность скачивания торрента НЕ зависит от ограничений при низком ратио, низком аплоаде, требуемом ратио или требуемом аплоаде.


Начать новую тему Ответить на тему
Статистика раздачи
Размер: 4.33 ГБ | Добавлен: 11 авг 2013, 19:15 | Скачали: 0
Сидеров: 0  [0 байт/сек]    Личеров: 0  [0 байт/сек]
Пред. тема | След. тема 

Автор
Сообщение

СообщениеДобавлено: 11 авг 2013, 19:15 

Информация о фильме
Название: Император
Оригинальное название: Emperor
Год выхода: 2012
Жанр: Драма, военный, история
Режиссер: Питер Веббер
В ролях: Мэттью Фокс, Томми Ли Джонс, Ерико Хатсуне, Тосиюки Нисида, Масаёси Ханеда, Каори Момои, Колин Мой, Масатоши Накамура, Масато Ибу, Исао Натсуяги
О фильме: Фильм рассказывает о днях, последовавших за капитуляцией Японии во Второй мировой войне, когда правителем Страны Восходящего солнца де-факто являлся генерал Даглас МакАртур. Одному из экспертов-японистов, генералу Боннеру Феллерсу, поручено найти ответ на непростой вопрос: следует ли признать японского императора Хирохито военным преступником и повесить?

Страна: США, Япония, Fellers Film, Krasnoff Foster Productions
Продолжительность: 01:45:31
Перевод: Любительский (двухголосый, закадровый) - ELEKTRI4KA
Файл
Качество: BDRip 720p
Формат: MKV
Видео: MPEG4/AVC, 1280x544 (2,35:1), 23,976 кадра/сек, 4989 Кбит/сек, 0.299 Бит/(Пиксели*Кадры)
Аудио 1: 48,0 КГц, AC3 Dolby Digital, 3/2 (L,C,R,l,r) + LFE ch, 448.00 Кбит/сек | RUS
Аудио 2: 48,0 КГц, AC3 Dolby Digital, 3/2 (L,C,R,l,r) + LFE ch, 448.00 Кбит/сек | ENG
Субтитры: Английские (полные + SDH)
Навигация по главам: Есть
Общее
Уникальный идентификатор : 243099260291570876005465088492487733311 (0xB6E336E883C183ABA0BC6768524E703F)
Полное имя : Emperor (2012) BDRip 720p.mkv
Формат : Matroska
Версия формата : Version 2
Размер файла : 4,33 Гбайт
Продолжительность : 1 ч. 45 м.
Общий поток : 5879 Кбит/сек
Название фильма : Emperor 2012 1080p Blu-ray Remux AVC DTS-HD MA 5.1 - KRaLiMaRKo
Дата кодирования : UTC 2013-08-11 09:17:41
Программа кодирования : mkvmerge v5.8.0 ('No Sleep / Pillow') built on Sep 2 2012 15:37:04
Библиотека кодирования : libebml v1.2.3 + libmatroska v1.3.0
Видео
Идентификатор : 1
Формат : AVC
Формат/Информация : Advanced Video Codec
Профиль формата : High@L4.1
Параметр CABAC формата : Да
Параметр ReFrames формата : 6 кадров
Режим смешивания : Header stripping
Идентификатор кодека : V_MPEG4/ISO/AVC
Продолжительность : 1 ч. 45 м.
Битрейт : 4989 Кбит/сек
Ширина : 1280 пикселей
Высота : 544 пикселя
Соотношение сторон : 2,35:1
Режим частоты кадров : Постоянный
Частота кадров : 23,976 кадра/сек
Цветовое пространство : YUV
Субдискретизация насыщенности : 4:2:0
Битовая глубина : 8 бит
Тип развёртки : Прогрессивная
Бит/(Пиксели*Кадры) : 0.299
Размер потока : 3,59 Гбайт (83%)
Библиотека кодирования : x264 core 125 r2208 d9d2288
Настройки программы : cabac=1 / ref=6 / deblock=1:-1:-1 / analyse=0x3:0x133 / me=umh / subme=11 / psy=1 / psy_rd=1.00:0.10 / mixed_ref=1 / me_range=64 / chroma_me=1 / trellis=2 / 8x8dct=1 / cqm=0 / deadzone=21,11 / fast_pskip=0 / chroma_qp_offset=-3 / threads=3 / lookahead_threads=1 / sliced_threads=0 / nr=0 / decimate=1 / interlaced=0 / bluray_compat=0 / constrained_intra=0 / bframes=8 / b_pyramid=2 / b_adapt=2 / b_bias=0 / direct=3 / weightb=1 / open_gop=0 / weightp=2 / keyint=240 / keyint_min=23 / scenecut=40 / intra_refresh=0 / rc_lookahead=50 / rc=2pass / mbtree=1 / bitrate=4989 / ratetol=1.0 / qcomp=0.60 / qpmin=0 / qpmax=69 / qpstep=4 / cplxblur=20.0 / qblur=0.5 / ip_ratio=1.40 / aq=1:1.00
Язык : English
Default : Да
Forced : Нет
Аудио #1
Идентификатор : 2
Формат : AC-3
Формат/Информация : Audio Coding 3
Расширение режима : CM (complete main)
Параметр Endianness формата : Big
Режим смешивания : Header stripping
Идентификатор кодека : A_AC3
Продолжительность : 1 ч. 45 м.
Вид битрейта : Постоянный
Битрейт : 448 Кбит/сек
Каналы : 6 каналов
Расположение каналов : Front: L C R, Side: L R, LFE
Частота : 48,0 КГц
Битовая глубина : 16 бит
Метод сжатия : С потерями
Размер потока : 338 Мбайт (8%)
Заголовок : DVO | DD 5.1 @ 448 kbps
Язык : Russian
Default : Да
Forced : Нет
Аудио #2
Идентификатор : 3
Формат : AC-3
Формат/Информация : Audio Coding 3
Расширение режима : CM (complete main)
Параметр Endianness формата : Big
Режим смешивания : Header stripping
Идентификатор кодека : A_AC3
Продолжительность : 1 ч. 45 м.
Вид битрейта : Постоянный
Битрейт : 448 Кбит/сек
Каналы : 6 каналов
Расположение каналов : Front: L C R, Side: L R, LFE
Частота : 48,0 КГц
Битовая глубина : 16 бит
Метод сжатия : С потерями
Размер потока : 338 Мбайт (8%)
Заголовок : Original | DD 5.1 @ 448 kbps
Язык : English
Default : Нет
Forced : Нет
Текст #1
Идентификатор : 4
Формат : UTF-8
Идентификатор кодека : S_TEXT/UTF8
Идентификатор кодека/Информация : UTF-8 Plain Text
Язык : English
Default : Нет
Forced : Нет
Текст #2
Идентификатор : 5
Формат : UTF-8
Идентификатор кодека : S_TEXT/UTF8
Идентификатор кодека/Информация : UTF-8 Plain Text
Заголовок : SDH
Язык : English
Default : Нет
Forced : Нет
Меню
00:00:00.000 : en:00:00:00.000
00:07:00.170 : en:00:07:00.170
00:14:25.782 : en:00:14:25.782
00:20:41.699 : en:00:20:41.699
00:29:13.293 : en:00:29:13.293
00:36:26.559 : en:00:36:26.559
00:41:58.766 : en:00:41:58.766
00:48:26.570 : en:00:48:26.570
00:56:14.705 : en:00:56:14.705
01:02:03.678 : en:01:02:03.678
01:07:56.155 : en:01:07:56.155
01:17:27.560 : en:01:17:27.560
01:23:43.894 : en:01:23:43.894
01:31:06.127 : en:01:31:06.127
01:37:08.823 : en:01:37:08.823
01:41:01.055 : en:01:41:01.055


Релиз от: Релиз группа: &
загрузка...
Правила, инструкции, FAQ!!!
Торрент  Добавлен [11 авг 2013, 19:15] Скачать торрент
Скачать торрент
[ Размер 11.35 КБ / Просмотров 2 ]

Статус  
 
Размер  4.33 ГБ
Приватный: Нет (DHT включён)
.torrent скачан  0
Как залить торрент? | Как скачать Torrent? | Как смотреть и слушать онлайн?  


     Отправить личное сообщение
   
Страница 1 из 1
Показать сообщения за:  Поле сортировки  
Начать новую тему Ответить на тему

   Похожие торренты   Автор   Ответы   Просмотры   Последнее сообщение 
В этой теме нет новых непрочитанных сообщений. Скачать торрент Проверен (Black Metal) [12"] [24/192] Emperor – Emperor - (1993)2014, FLAC (image+.cue)

в форуме Зарубежный рок (оцифровки), Размер: 792.37 МБ, Здоровье: 100%

Anonymous

0
13|1

7
1

26 авг 2016, 09:56

Anonymous Перейти к последнему сообщению

В этой теме нет новых непрочитанных сообщений. Скачать торрент Проверен Злотников Роман - Арвендейл. Император людей [Семен Мендельсон, 2012 г., 128 kbps, MP3]

в форуме Российская фантастика, фэнтези, мистика, ужасы, фанфики, Размер: 612.49 МБ, Здоровье: 100%

Anonymous

0
34|11

2
0

10 сен 2016, 20:46

Anonymous Перейти к последнему сообщению

В этой теме нет новых непрочитанных сообщений. Скачать торрент Проверен Олдридж Рэй - (Серия: Освободитель) - Император всего. Книга 2 [defon (ЛИ), 2012 г., 128 kbps, MP3]

в форуме Зарубежная фантастика, фэнтези, мистика, ужасы, Размер: 742.4 МБ, Здоровье: 0%

Anonymous

0
0|0

0
0

11 сен 2016, 10:52

Anonymous Перейти к последнему сообщению

В этой теме нет новых непрочитанных сообщений. Скачать торрент Мумия: Гробница Императора Драконов / The Mummy: Tomb of the Dragon Emperor (Роб Коэн / Rob Cohen) [2008 г., Боевик, Фэнтези, Приключения, BDRip] Dub

в форуме Боевики, Размер: 1.46 ГБ, Здоровье: 0%

Anonymous

0
0|0

58
0

14 фев 2014, 07:44

Anonymous Перейти к последнему сообщению

В этой теме нет новых непрочитанных сообщений. Скачать торрент Проверен Rammstein: Videos 1995-2012 [2012, Industrial , BDRip (720p)]

в форуме Концерты (HD-Video), Размер: 21.24 ГБ, Здоровье: 100%

Гость

0
56|37

769
11

26 апр 2015, 22:42

Гость Перейти к последнему сообщению



Сейчас этот форум просматривают: нет зарегистрированных пользователей и гости: 2


Вы не можете начинать темы
Вы не можете отвечать на сообщения
Вы не можете редактировать свои сообщения
Вы не можете удалять свои сообщения
Вы не можете добавлять вложения

Перейти:  

!ВНИМАНИЕ!
 Ресурс не предоставляет электронные версии произведений, а занимается лишь коллекционированием и каталогизацией ссылок, присылаемых и публикуемых на форуме нашими читателями. Если вы являетесь правообладателем какого-либо представленного материала и не желаете чтобы ссылка на него находилась в нашем каталоге, свяжитесь с нами и мы незамедлительно удалим её. Файлы для обмена на трекере предоставлены пользователями сайта, и администрация не несёт ответственности за их содержание. Просьба не заливать файлы, защищенные авторскими правами, а также файлы нелегального содержания!