На всех торрентах на трекере установлена скидка на скачивание в размере 100 процентов(а).
 Возможность скачивания торрента НЕ зависит от ограничений при низком ратио, низком аплоаде, требуемом ратио или требуемом аплоаде.


Начать новую тему Ответить на тему
Статистика раздачи
Размер: 9.85 ГБ | Добавлен: 10 авг 2013, 23:12 | Скачали: 0
Сидеров: 0  [0 байт/сек]    Личеров: 0  [0 байт/сек]
Пред. тема | След. тема 

Автор
Сообщение

СообщениеДобавлено: 10 авг 2013, 23:12 

Название: Выкуп
Оригинальное название: Ransom
Год выпуска: 1996
Жанр: Триллер, криминал
Режиссер: Рон Ховард

В ролях: Мэл Гибсон, Рене Руссо, Броули Нолти, Гэри Синиз, Делрой Линдо, Лили Тэйлор, Лив Шрайбер, Донни Уолберг, Нэнси Тикотин, Майкл Гэстон, Пол Гилфойл, Хосе Зунига, Дэн Хедайя, Майк Ходж, Джон Шорт, Эван Хэндлер

Сюжет фильма:
У преуспевающего владельца авиакомпании похищают сына и требуют выкуп в 2 миллиона долларов. Том Маллен по настоянию жены сообщает о похищении в ФБР, и зритель видит детально выписанную работу специалистов в контакте с отцом. Выясняется, что в прошлом у Маллена было черное пятно - он дал в свое время взятку и избежал тюрьмы, куда попал другой человек. Фильм имеет довольно неожиданную развязку.



Выпущено: США, Touchstone Pictures
Продолжительность: 02:01:28
Перевод: Многоголосый закадровый, Киномания; Многоголосый закадровый, Видеосервис; Многоголосый закадровый, FDV; Одноголосый закадровый, Гаврилов; Одноголосый закадровый, Живов; Английский
Файл
Качество: BDRip 1080p (исходник BD-Remux )
Видео: 1920х1036, 8 923 Кбит/сек, 23.976 кадр/сек, 1.85:1, AVC, x264, 0.187 Бит/(Пиксели*Кадры), 2-pass
Аудио1: AC-3, 448 Кбит/сек, 6 канала(ов), 48,0 КГц - Многоголосый закадровый, Киномания - (установлен по умолчанию)
Аудио2: AC-3, 448 Кбит/сек, 6 канала(ов), 48,0 КГц - Многоголосый закадровый, Видеосервис
Аудио3: AC-3, 448 Кбит/сек, 6 канала(ов), 48,0 КГц - Многоголосый закадровый, FDV
Аудио4: AC-3, 448 Кбит/сек, 6 канала(ов), 48,0 КГц - Одноголосый закадровый, Гаврилов
Аудио5: AC-3, 448 Кбит/сек, 6 канала(ов), 48,0 КГц - Одноголосый закадровый, Живов
Аудио6: AC-3, 448 Кбит/сек, 6 канала(ов), 48,0 КГц - Английский
Чаптеры Есть
Субтитры: Русские, Английские




Format : Matroska
Format version : Version 4 / Version 2
File size : 9.85 GiB
Duration : 2h 1mn
Overall bit rate : 11.6 Mbps
Movie name : Выкуп.(1996).BDRip.1080p.NoLimits-Team
Encoded date : UTC 2013-08-10 12:11:33
Writing application : mkvmerge v6.3.0 ('You can't stop me!') built on Jun 28 2013 20:09:41
Writing library : libebml v1.3.0 + libmatroska v1.4.0

Video
ID : 1
Format : AVC
Format/Info : Advanced Video Codec
Format profile : High@L4.1
Format settings, CABAC : Yes
Format settings, ReFrames : 4 frames
Codec ID : V_MPEG4/ISO/AVC
Duration : 2h 1mn
Bit rate : 8 923 Kbps
Width : 1 920 pixels
Height : 1 036 pixels
Display aspect ratio : 1.85:1
Frame rate mode : Constant
Frame rate : 23.976 fps
Color space : YUV
Chroma subsampling : 4:2:0
Bit depth : 8 bits
Scan type : Progressive
Bits/(Pixel*Frame) : 0.187
Stream size : 7.37 GiB (75%)
Title : Выкуп.(1996).BDRip.1080p от NoLimits-Team
Writing library : x264 core 135 r2345 f0c1c53
Encoding settings : cabac=1 / ref=4 / deblock=1:0:0 / analyse=0x3:0x113 / me=umh / subme=11 / psy=1 / psy_rd=1.00:0.15 / mixed_ref=1 / me_range=32 / chroma_me=1 / trellis=2 / 8x8dct=1 / cqm=0 / deadzone=21,11 / fast_pskip=0 / chroma_qp_offset=-3 / threads=6 / lookahead_threads=1 / sliced_threads=0 / nr=0 / decimate=0 / interlaced=0 / bluray_compat=0 / constrained_intra=0 / bframes=8 / b_pyramid=2 / b_adapt=2 / b_bias=0 / direct=3 / weightb=1 / open_gop=0 / weightp=2 / keyint=240 / keyint_min=23 / scenecut=40 / intra_refresh=0 / rc=2pass / mbtree=0 / bitrate=8923 / ratetol=1.0 / qcomp=0.60 / qpmin=0 / qpmax=69 / qpstep=4 / cplxblur=20.0 / qblur=0.5 / ip_ratio=1.40 / pb_ratio=1.30 / aq=1:0.95
Language : English
Default : Yes
Forced : No

Audio #1
ID : 2
Format : AC-3
Format/Info : Audio Coding 3
Mode extension : CM (complete main)
Format settings, Endianness : Big
Codec ID : A_AC3
Duration : 2h 1mn
Bit rate mode : Constant
Bit rate : 448 Kbps
Channel(s) : 6 channels
Channel positions : Front: L C R, Side: L R, LFE
Sampling rate : 48.0 KHz
Bit depth : 16 bits
Compression mode : Lossy
Stream size : 389 MiB (4%)
Title : Многоголосый закадровый, Киномания
Language : Russian
Default : Yes
Forced : No

Audio #2
ID : 3
Format : AC-3
Format/Info : Audio Coding 3
Mode extension : CM (complete main)
Format settings, Endianness : Big
Codec ID : A_AC3
Duration : 2h 1mn
Bit rate mode : Constant
Bit rate : 448 Kbps
Channel(s) : 6 channels
Channel positions : Front: L C R, Side: L R, LFE
Sampling rate : 48.0 KHz
Bit depth : 16 bits
Compression mode : Lossy
Stream size : 389 MiB (4%)
Title : Многоголосый закадровый, Видеосервис-448
Language : Russian
Default : No
Forced : No

Audio #3
ID : 4
Format : AC-3
Format/Info : Audio Coding 3
Mode extension : CM (complete main)
Format settings, Endianness : Big
Codec ID : A_AC3
Duration : 2h 1mn
Bit rate mode : Constant
Bit rate : 448 Kbps
Channel(s) : 6 channels
Channel positions : Front: L C R, Side: L R, LFE
Sampling rate : 48.0 KHz
Bit depth : 16 bits
Compression mode : Lossy
Stream size : 389 MiB (4%)
Title : Многоголосый закадровый, FDV-448
Language : Russian
Default : No
Forced : No

Audio #4
ID : 5
Format : AC-3
Format/Info : Audio Coding 3
Mode extension : CM (complete main)
Format settings, Endianness : Big
Codec ID : A_AC3
Duration : 2h 1mn
Bit rate mode : Constant
Bit rate : 448 Kbps
Channel(s) : 6 channels
Channel positions : Front: L C R, Side: L R, LFE
Sampling rate : 48.0 KHz
Bit depth : 16 bits
Compression mode : Lossy
Stream size : 389 MiB (4%)
Title : Одноголосый закадровый, Гаврилов-448
Language : Russian
Default : No
Forced : No

Audio #5
ID : 6
Format : AC-3
Format/Info : Audio Coding 3
Mode extension : CM (complete main)
Format settings, Endianness : Big
Codec ID : A_AC3
Duration : 2h 1mn
Bit rate mode : Constant
Bit rate : 448 Kbps
Channel(s) : 6 channels
Channel positions : Front: L C R, Side: L R, LFE
Sampling rate : 48.0 KHz
Bit depth : 16 bits
Compression mode : Lossy
Stream size : 389 MiB (4%)
Title : Одноголосый закадровый, Живов-448
Language : Russian
Default : No
Forced : No

Audio #6
ID : 7
Format : AC-3
Format/Info : Audio Coding 3
Mode extension : CM (complete main)
Format settings, Endianness : Big
Codec ID : A_AC3
Duration : 2h 1mn
Bit rate mode : Constant
Bit rate : 448 Kbps
Channel(s) : 6 channels
Channel positions : Front: L C R, Side: L R, LFE
Sampling rate : 48.0 KHz
Bit depth : 16 bits
Compression mode : Lossy
Stream size : 389 MiB (4%)
Title : Оригинал
Language : English
Default : No
Forced : No

Text #1
ID : 8
Format : UTF-8
Codec ID : S_TEXT/UTF8
Codec ID/Info : UTF-8 Plain Text
Title : русские
Language : Russian
Default : No
Forced : No

Text #2
ID : 9
Format : UTF-8
Codec ID : S_TEXT/UTF8
Codec ID/Info : UTF-8 Plain Text
Title : Английские
Language : English
Default : No
Forced : No

Menu
00:00:00.000 : en:00:00:00.000
00:00:13.012 : en:00:00:13.012
00:08:04.817 : en:00:08:04.817
00:13:42.071 : en:00:13:42.071
00:19:28.625 : en:00:19:28.625
00:24:48.570 : en:00:24:48.570
00:26:41.141 : en:00:26:41.141
00:30:26.574 : en:00:30:26.574
00:32:29.238 : en:00:32:29.238
00:36:41.199 : en:00:36:41.199
00:41:48.589 : en:00:41:48.589
00:44:21.450 : en:00:44:21.450
00:48:30.574 : en:00:48:30.574
01:00:07.145 : en:01:00:07.145
01:08:36.695 : en:01:08:36.695
01:16:01.848 : en:01:16:01.848
01:19:57.626 : en:01:19:57.626
01:24:44.120 : en:01:24:44.120
01:30:06.109 : en:01:30:06.109
01:33:46.203 : en:01:33:46.203
01:38:50.507 : en:01:38:50.507
01:48:45.644 : en:01:48:45.644
01:55:55.531 : en:01:55:55.531


x264 [info]: frame I:1238 Avg QP:16.73 size:171186
x264 [info]: frame P:41186 Avg QP:19.16 size: 77858
x264 [info]: frame B:132312 Avg QP:20.60 size: 35561

Релиз Группа: & Автор Рипа:

загрузка...
Правила, инструкции, FAQ!!!
Торрент  Добавлен [10 авг 2013, 23:12] Скачать торрент
Скачать торрент
[ Размер 49.68 КБ / Просмотров 6 ]

Статус  
 
Размер  9.85 ГБ
Приватный: Нет (DHT включён)
.torrent скачан  0
Как залить торрент? | Как скачать Torrent? | Как смотреть и слушать онлайн?  


     Отправить личное сообщение
   
Страница 1 из 1
Показать сообщения за:  Поле сортировки  
Начать новую тему Ответить на тему

   Похожие торренты   Автор   Ответы   Просмотры   Последнее сообщение 
В этой теме нет новых непрочитанных сообщений. Скачать торрент Проверен Стиратель / Eraser (1996) BDRip 1080p

в форуме 720p | 1080p, Размер: 6.21 ГБ, Здоровье: 100%

Anonymous

0
10|4

31
137

18 сен 2014, 12:57

Anonymous Перейти к последнему сообщению

В этой теме нет новых непрочитанных сообщений. Скачать торрент Проверен На игле / Trainspotting (1996) BDRip 1080p

в форуме 720p | 1080p, Размер: 8.69 ГБ, Здоровье: 100%

Anonymous

0
27|5

53
124

06 сен 2014, 22:16

Anonymous Перейти к последнему сообщению

В этой теме нет новых непрочитанных сообщений. Скачать торрент Проверен Мужество в бою / Courage Under Fire (1996) BDRip 1080p | P, A

в форуме 720p | 1080p, Размер: 10.07 ГБ, Здоровье: 38%

Гость

0
5|13

54
16

11 апр 2016, 20:30

Гость Перейти к последнему сообщению

В этой теме нет новых непрочитанных сообщений. Скачать торрент Проверен Бегущая мишень / Moving Target (1996) BDRip [1080p]

в форуме 720p | 1080p, Размер: 4.21 ГБ, Здоровье: 100%

Гость

0
22|3

54
0

25 янв 2015, 11:45

Гость Перейти к последнему сообщению

В этой теме нет новых непрочитанных сообщений. Скачать торрент Проверен Отточенное лезвие / Sling Blade (1996) BDRip 1080p | P

в форуме 720p | 1080p, Размер: 11.25 ГБ, Здоровье: 100%

Гость

0
9|1

23
14

06 дек 2014, 18:45

Гость Перейти к последнему сообщению



Сейчас этот форум просматривают: Bing [Bot] и гости: 4


Вы не можете начинать темы
Вы не можете отвечать на сообщения
Вы не можете редактировать свои сообщения
Вы не можете удалять свои сообщения
Вы не можете добавлять вложения

Перейти:  

!ВНИМАНИЕ!
 Ресурс не предоставляет электронные версии произведений, а занимается лишь коллекционированием и каталогизацией ссылок, присылаемых и публикуемых на форуме нашими читателями. Если вы являетесь правообладателем какого-либо представленного материала и не желаете чтобы ссылка на него находилась в нашем каталоге, свяжитесь с нами и мы незамедлительно удалим её. Файлы для обмена на трекере предоставлены пользователями сайта, и администрация не несёт ответственности за их содержание. Просьба не заливать файлы, защищенные авторскими правами, а также файлы нелегального содержания!