На всех торрентах на трекере установлена скидка на скачивание в размере 100 процентов(а).
 Возможность скачивания торрента НЕ зависит от ограничений при низком ратио, низком аплоаде, требуемом ратио или требуемом аплоаде.


Начать новую тему Ответить на тему
Статистика раздачи
Размер: 7.15 ГБ | Добавлен: 10 авг 2013, 22:14 | Скачали: 0
Сидеров: 0  [0 байт/сек]    Личеров: 0  [0 байт/сек]
Пред. тема | След. тема 

Автор
Сообщение

СообщениеДобавлено: 10 авг 2013, 22:14 

Название: Роб Рой
Оригинальное название: Rob Roy
Год выпуска: 1995
Жанр: США, Великобритания, Talisman Productions, United Artists
Режиссер: Майкл Кейтон-Джонс

В ролях: Лиам Нисон, Джессика Лэнг, Джон Херт, Тим Рот, Эрик Столц, Эндрю Кир, Брайан Кокс, Брайан МакКарди, Гилберт Мартин, Вики Массон, Джилли Гилкрист, Джейсон Флеминг, Ивэн Стюарт, Дэвид Хеймен, Брайан МакАртур, Дэвид Брукс Палмер, Мира МакФадьен, Карен Мэтисон, Ширли Хендерсон, Джон Мурта, Билл Гардинер, Ричард Боунхилл

Описание: Если ты не просто отец семейства, а глава клана гордых шотландцев, свято верящих в то, что именно ты, Роберт Рой МакГрегор, сумеешь о них позаботиться и прокормить, то самое время "брать быка за рога" и решиться на заем большой суммы денег у богатого лэндлорда для последующей перепродажи с выгодой приобретенного на них скота... Но что, если это простое по теперешним меркам предприятие внезапно приведет к возникновению угрозы навсегда потерять честь, достоинство и... любовь? Эти вещи продаются?...

Выпущено: США, Великобритания, Talisman Productions, United Artists
Продолжительность: 02:19:17
Перевод: Профессиональный многоголосый, авторский


Качество: BDRip 720pp
Видео: MPEG-4 AVC, 4241 Кбит/с, 1280x544
Аудио rus: AC3, 2 ch, 192 Кбит/с (все) - Подробнее в вкладке Релиз (о переводах)
Аудио eng: AC3, 6 ch, 640 Кбит/с, DTS, 6 ch, 1510 Кбит/с

Семпл

tahiy

Дата релиза: 10.08.2013

• Профессиональный многоголосый (ОРТ)
• Профессиональный многоголосый (НТВ+)
• Профессиональный многоголосый (Варус Видео)
• Профессиональный многоголосый
• Авторский одноголосый (Гаврилов)
--------------------------------------------------------------------------------------------------------------
второй проход x264:
x264 [info]: frame I:1456 Avg QP:16.16 size:107032
x264 [info]: frame P:45278 Avg QP:18.46 size: 40287
x264 [info]: frame B:153647 Avg QP:19.86 size: 15945
--------------------------------------------------------------------------------------------------------------


Полное имя: E: Rob.Roi.1995.x264.BDRip.(720p).tahiy.mkv
Формат : Matroska
Версия формата : Version 2
Размер файла : 7,15 Гбайт
Продолжительность : 2 ч. 19 м.
Общий поток : 7353 Кбит/сек
Название фильма : Rob.Roi.1995.x264.BDRip.(720p).tahiy
Дата кодирования : UTC 2013-08-10 14:59:09
Программа кодирования : mkvmerge v4.0.0 ('The Stars were mine') сборка от Jun 6 2010 16:18:42
Библиотека кодирования : libebml v1.0.0 + libmatroska v1.0.0

Видео
Идентификатор : 1
Формат : AVC
Формат/Информация : Advanced Video Codec
Профиль формата : High@L4.1
Параметр CABAC формата : Да
Параметр ReFrames формата : 8 кадров
Идентификатор кодека : V_MPEG4/ISO/AVC
Продолжительность : 2 ч. 19 м.
Битрейт : 4241 Кбит/сек
Ширина : 1280 пикселей
Высота : 544 пикселя
Соотношение сторон : 2,35:1
Режим частоты кадров : Постоянный
Частота кадров : 23,976 кадра/сек
Цветовое пространство : YUV
Субдискретизация насыщенности : 4:2:0
Битовая глубина : 8 бит
Тип развёртки : Прогрессивная
Бит/(Пиксели*Кадры) : 0.254
Размер потока : 3,99 Гбайт (56%)
Заголовок : Rob.Roi.1995.x264.BDRip.(720p).tahiy
Библиотека кодирования : x264 core 130 r2273 b3065e6
Настройки программы : cabac=1 / ref=8 / deblock=1:-2:-2 / analyse=0x3:0x113 / me=umh / subme=10 / psy=1 / psy_rd=1.00:0.20 / mixed_ref=1 / me_range=32 / chroma_me=1 / trellis=2 / 8x8dct=1 / cqm=0 / deadzone=21,11 / fast_pskip=0 / chroma_qp_offset=-3 / threads=3 / lookahead_threads=1 / sliced_threads=0 / nr=0 / decimate=0 / interlaced=0 / bluray_compat=0 / constrained_intra=0 / bframes=6 / b_pyramid=2 / b_adapt=2 / b_bias=0 / direct=3 / weightb=1 / open_gop=0 / weightp=2 / keyint=240 / keyint_min=23 / scenecut=40 / intra_refresh=0 / rc_lookahead=40 / rc=2pass / mbtree=0 / bitrate=4241 / ratetol=1.0 / qcomp=0.60 / qpmin=0 / qpmax=69 / qpstep=4 / cplxblur=20.0 / qblur=0.5 / vbv_maxrate=50000 / vbv_bufsize=62500 / nal_hrd=none / ip_ratio=1.40 / pb_ratio=1.30 / aq=1:1.00
Язык : English
Default : Да
Forced : Нет

Аудио #1
Идентификатор : 2
Формат : AC-3
Формат/Информация : Audio Coding 3
Расширение режима : CM (complete main)
Параметр Endianness формата : Big
Идентификатор кодека : A_AC3
Продолжительность : 2 ч. 19 м.
Вид битрейта : Постоянный
Битрейт : 192 Кбит/сек
Каналы : 2 канала
Расположение каналов : Front: L R
Частота : 48,0 КГц
Битовая глубина : 16 бит
Метод сжатия : С потерями
Размер потока : 191 Мбайт (3%)
Заголовок : Профессиональный многоголосый (ОРТ)
Язык : Russian
Default : Да
Forced : Нет

Аудио #2
Идентификатор : 3
Формат : AC-3
Формат/Информация : Audio Coding 3
Расширение режима : CM (complete main)
Параметр Endianness формата : Big
Идентификатор кодека : A_AC3
Продолжительность : 2 ч. 19 м.
Вид битрейта : Постоянный
Битрейт : 192 Кбит/сек
Каналы : 2 канала
Расположение каналов : Front: L R
Частота : 48,0 КГц
Битовая глубина : 16 бит
Метод сжатия : С потерями
Размер потока : 191 Мбайт (3%)
Заголовок : Профессиональный многоголосый (НТВ+)
Язык : Russian
Default : Нет
Forced : Нет

Аудио #3
Идентификатор : 4
Формат : AC-3
Формат/Информация : Audio Coding 3
Расширение режима : CM (complete main)
Параметр Endianness формата : Big
Идентификатор кодека : A_AC3
Продолжительность : 2 ч. 19 м.
Вид битрейта : Постоянный
Битрейт : 192 Кбит/сек
Каналы : 2 канала
Расположение каналов : Front: L R
Частота : 48,0 КГц
Битовая глубина : 16 бит
Метод сжатия : С потерями
Размер потока : 191 Мбайт (3%)
Заголовок : Профессиональный многоголосый (Варус Видео)
Язык : Russian
Default : Нет
Forced : Нет

Аудио #4
Идентификатор : 5
Формат : AC-3
Формат/Информация : Audio Coding 3
Расширение режима : CM (complete main)
Параметр Endianness формата : Big
Идентификатор кодека : A_AC3
Продолжительность : 2 ч. 19 м.
Вид битрейта : Постоянный
Битрейт : 192 Кбит/сек
Каналы : 2 канала
Расположение каналов : Front: L R
Частота : 48,0 КГц
Битовая глубина : 16 бит
Метод сжатия : С потерями
Размер потока : 191 Мбайт (3%)
Заголовок : Профессиональный многоголосый
Язык : Russian
Default : Нет
Forced : Нет

Аудио #5
Идентификатор : 6
Формат : AC-3
Формат/Информация : Audio Coding 3
Расширение режима : CM (complete main)
Параметр Endianness формата : Big
Идентификатор кодека : A_AC3
Продолжительность : 2 ч. 19 м.
Вид битрейта : Постоянный
Битрейт : 192 Кбит/сек
Каналы : 2 канала
Расположение каналов : Front: L R
Частота : 48,0 КГц
Битовая глубина : 16 бит
Метод сжатия : С потерями
Размер потока : 191 Мбайт (3%)
Заголовок : Авторский одноголосый (Гаврилов)
Язык : Russian
Default : Нет
Forced : Нет

Аудио #6
Идентификатор : 7
Формат : AC-3
Формат/Информация : Audio Coding 3
Расширение режима : CM (complete main)
Параметр Endianness формата : Big
Идентификатор кодека : A_AC3
Продолжительность : 2 ч. 19 м.
Вид битрейта : Постоянный
Битрейт : 640 Кбит/сек
Каналы : 6 каналов
Расположение каналов : Front: L C R, Side: L R, LFE
Частота : 48,0 КГц
Битовая глубина : 16 бит
Метод сжатия : С потерями
Размер потока : 638 Мбайт (9%)
Заголовок : English 640
Язык : English
Default : Нет
Forced : Нет

Аудио #7
Идентификатор : 8
Формат : DTS
Формат/Информация : Digital Theater Systems
Режим : 16
Параметр Endianness формата : Big
Идентификатор кодека : A_DTS
Продолжительность : 2 ч. 19 м.
Вид битрейта : Постоянный
Битрейт : 1509 Кбит/сек
Каналы : 6 каналов
Расположение каналов : Front: L C R, Side: L R, LFE
Частота : 48,0 КГц
Битовая глубина : 24 бит
Метод сжатия : С потерями
Размер потока : 1,47 Гбайт (21%)
Заголовок : English 1510
Язык : English
Default : Нет
Forced : Нет





Релиз от:
загрузка...
Правила, инструкции, FAQ!!!
Торрент  Добавлен [10 авг 2013, 22:14] Скачать торрент
Скачать торрент
[ Размер 36.24 КБ / Просмотров 5 ]

Статус  
 
Размер  7.15 ГБ
Приватный: Нет (DHT включён)
.torrent скачан  0
Как залить торрент? | Как скачать Torrent? | Как смотреть и слушать онлайн?  


     Отправить личное сообщение
   
Страница 1 из 1
Показать сообщения за:  Поле сортировки  
Начать новую тему Ответить на тему

   Похожие торренты   Автор   Ответы   Просмотры   Последнее сообщение 
В этой теме нет новых непрочитанных сообщений. Скачать торрент Проверен Роб Рой / Rob Roy (1995) BDRip 720p | P, A

в форуме 720p | 1080p, Размер: 4.37 ГБ, Здоровье: 90%

Гость

0
10|11

63
0

26 июл 2015, 20:49

Гость Перейти к последнему сообщению

В этой теме нет новых непрочитанных сообщений. Скачать торрент Проверен Дым / Smoke (1995) BDRip 720p

в форуме 720p | 1080p, Размер: 4.97 ГБ, Здоровье: 100%

Anonymous

0
110|89

59
108

31 май 2015, 20:46

Anonymous Перейти к последнему сообщению

В этой теме нет новых непрочитанных сообщений. Скачать торрент Правое дело / Just Cause (1995) BDRip 720p

в форуме 720p | 1080p, Размер: 2.17 ГБ, Здоровье: 0%

Anonymous

0
0|0

18
0

18 фев 2014, 09:01

Anonymous Перейти к последнему сообщению

В этой теме нет новых непрочитанных сообщений. Скачать торрент Проверен Четыре комнаты / Four Rooms (1995) BDRip 720p

в форуме 720p | 1080p, Размер: 4.98 ГБ, Здоровье: 100%

Гость

0
68|29

22
126

25 апр 2015, 20:25

Гость Перейти к последнему сообщению

В этой теме нет новых непрочитанных сообщений. Скачать торрент Проверен Французский поцелуй / French Kiss (1995) BDRip 720p | P, P2, A

в форуме 720p | 1080p, Размер: 7.77 ГБ, Здоровье: 7%

Anonymous

0
2|26

30
3

31 окт 2014, 19:34

Anonymous Перейти к последнему сообщению



Сейчас этот форум просматривают: нет зарегистрированных пользователей и гости: 1


Вы не можете начинать темы
Вы не можете отвечать на сообщения
Вы не можете редактировать свои сообщения
Вы не можете удалять свои сообщения
Вы не можете добавлять вложения

Перейти:  

!ВНИМАНИЕ!
 Ресурс не предоставляет электронные версии произведений, а занимается лишь коллекционированием и каталогизацией ссылок, присылаемых и публикуемых на форуме нашими читателями. Если вы являетесь правообладателем какого-либо представленного материала и не желаете чтобы ссылка на него находилась в нашем каталоге, свяжитесь с нами и мы незамедлительно удалим её. Файлы для обмена на трекере предоставлены пользователями сайта, и администрация не несёт ответственности за их содержание. Просьба не заливать файлы, защищенные авторскими правами, а также файлы нелегального содержания!