На всех торрентах на трекере установлена скидка на скачивание в размере 100 процентов(а).
 Возможность скачивания торрента НЕ зависит от ограничений при низком ратио, низком аплоаде, требуемом ратио или требуемом аплоаде.


Начать новую тему Ответить на тему
Статистика раздачи
Размер: 11.5 ГБ | Добавлен: 09 авг 2013, 21:25 | Скачали: 0
Сидеров: 0  [0 байт/сек]    Личеров: 0  [0 байт/сек]
Пред. тема | След. тема 

Автор
Сообщение

СообщениеДобавлено: 09 авг 2013, 21:25 

Название: Голубая бездна
Оригинальное название: Le grand bleu
Год выпуска: 1988
Жанр: драма, мелодрама, приключения
Режиссер: Люк Бессон

В ролях: Розанна Аркетт, Жан-Марк Барр, Жан Рено, Пол Шенар, Серджио Кастеллитто, Жан Буиз, Марк Дюре, Гриффин Данн, Валентина Варгас, Кимберли Бек, Патрик Фонтана, Алессандра Ваццолер, Джеффри Кэри, Брюс Гуэрра-Бертело, Грегори Форстнер, Андреас Вутсинас, Пьер-Ален Де Гарригес, Клод Робен, Клод Бессон, Марика Жеводен, Жан Руийе, Пьер Семмлер, Жак Леви, Эрик До, Андре Жерме, Рональд Теухи, Розарио Кампезе, Константин Александров, Франко Диоджене, Тредесса Далтон, Пьер-Ален де Гарригю, Пол Херман, Николя Мальто, Марк Планшон, Люк Бессон, Кристиан Газио, Валентина Кастеллани

Сюжет фильма:
Два друга — Энцо Молинари и Жак Майоль — вместе росли на одном из греческих островов. Отец Жака, ныряльщик, погиб при сборе устриц из-за неисправности водолазного оборудования. Проходят годы, мальчики уже выросли и снова встречаются после нескольких лет разлуки. Оба стали ныряльщиками на глубину без воздуха, и соревнование на чемпионатах мира практически ведется только между ними. Симпатичная работница страхового агентства Джоан, влюбляется в Жака с первого взгляда и едет за ним из Перу в Сицилию, где и становится свидетельницей начала опасного поединка между друзьями. От Жака она уже ждет ребенка. А друзья погружаются все на большую и большую глубину. Пройдена отметка в 120 метров. Для Жака и Энцо голубая бездна лучше, чем жизнь на земле...



Выпущено: Франция, США, Италия, Gaumont, Les Films du Loup
Продолжительность: 02:48:19
Перевод: Профессиональный многоголосый закадровый; Профессиональный Двухголосый закадровый, П.Гланц и И.Королёва; Профессиональный Одноголосый закадровый, Ю.Живов; Украинский Многоголосый закадровый
Файл
Качество: BDRip 1080p (исходник BD-Remux )
Видео: 1920х816, 7 475 Кбит/сек, 23.976 кадр/сек, 2.40:1, AVC, x264, 0.199 Бит/(Пиксели*Кадры), 2-pass
Аудио1: AC-3, 640 Кбит/сек, 6 канала(ов), 48,0 КГц - Профессиональный многоголосый закадровый (R5)
Аудио2: AC-3, 640 Кбит/сек, 6 канала(ов), 48,0 КГц - Профессиональный Двухголосый закадровый, П.Гланц и И.Королёва
Аудио3: AC-3, 640 Кбит/сек, 6 канала(ов), 48,0 КГц - Профессиональный Одноголосый закадровый, Ю.Живов
Аудио4: AC-3, 384 Кбит/сек, 6 канала(ов), 48,0 КГц - Украинский Многоголосый закадровый
Чаптеры Есть
Субтитры: Русские




Format : Matroska
Format version : Version 4 / Version 2
File size : 11.5 GiB
Duration : 2h 48mn
Overall bit rate : 9 778 Kbps
Movie name : Голубая бездна.(Режиссёрская версия).(1988).BDRip.1080p.NoLimits-Team
Encoded date : UTC 2013-08-09 12:16:42
Writing application : mkvmerge v6.3.0 ('You can't stop me!') built on Jun 28 2013 20:09:41
Writing library : libebml v1.3.0 + libmatroska v1.4.0

Video
ID : 1
Format : AVC
Format/Info : Advanced Video Codec
Format profile : High@L4.1
Format settings, CABAC : Yes
Format settings, ReFrames : 5 frames
Codec ID : V_MPEG4/ISO/AVC
Duration : 2h 48mn
Bit rate : 7 475 Kbps
Width : 1 920 pixels
Height : 816 pixels
Display aspect ratio : 2.35:1
Frame rate mode : Constant
Frame rate : 23.976 fps
Color space : YUV
Chroma subsampling : 4:2:0
Bit depth : 8 bits
Scan type : Progressive
Bits/(Pixel*Frame) : 0.199
Stream size : 8.56 GiB (74%)
Title : Голубая бездна.(Режиссёрская версия).(1988).BDRip.1080p от NoLimits-Team
Writing library : x264 core 135 r2345 f0c1c53
Encoding settings : cabac=1 / ref=5 / deblock=1:0:0 / analyse=0x3:0x113 / me=umh / subme=11 / psy=1 / psy_rd=1.00:0.15 / mixed_ref=1 / me_range=32 / chroma_me=1 / trellis=2 / 8x8dct=1 / cqm=0 / deadzone=21,11 / fast_pskip=0 / chroma_qp_offset=-3 / threads=6 / lookahead_threads=1 / sliced_threads=0 / nr=0 / decimate=0 / interlaced=0 / bluray_compat=0 / constrained_intra=0 / bframes=9 / b_pyramid=2 / b_adapt=2 / b_bias=0 / direct=3 / weightb=1 / open_gop=0 / weightp=2 / keyint=240 / keyint_min=23 / scenecut=40 / intra_refresh=0 / rc=2pass / mbtree=0 / bitrate=7475 / ratetol=1.0 / qcomp=0.60 / qpmin=0 / qpmax=69 / qpstep=4 / cplxblur=20.0 / qblur=0.5 / ip_ratio=1.40 / pb_ratio=1.30 / aq=1:0.95
Language : English
Default : Yes
Forced : No

Audio #1
ID : 2
Format : AC-3
Format/Info : Audio Coding 3
Mode extension : CM (complete main)
Format settings, Endianness : Big
Codec ID : A_AC3
Duration : 2h 48mn
Bit rate mode : Constant
Bit rate : 640 Kbps
Channel(s) : 6 channels
Channel positions : Front: L C R, Side: L R, LFE
Sampling rate : 48.0 KHz
Bit depth : 16 bits
Compression mode : Lossy
Stream size : 771 MiB (7%)
Title : Профессиональный многоголосый закадровый
Language : Russian
Default : No
Forced : No

Audio #2
ID : 3
Format : AC-3
Format/Info : Audio Coding 3
Mode extension : CM (complete main)
Format settings, Endianness : Big
Codec ID : A_AC3
Duration : 2h 48mn
Bit rate mode : Constant
Bit rate : 640 Kbps
Channel(s) : 6 channels
Channel positions : Front: L C R, Side: L R, LFE
Sampling rate : 48.0 KHz
Bit depth : 16 bits
Compression mode : Lossy
Stream size : 771 MiB (7%)
Title : Профессиональный Двухголосый закадровый, П.Гланц и И.Королёва
Language : Russian
Default : No
Forced : No

Audio #3
ID : 4
Format : AC-3
Format/Info : Audio Coding 3
Mode extension : CM (complete main)
Format settings, Endianness : Big
Codec ID : A_AC3
Duration : 2h 48mn
Bit rate mode : Constant
Bit rate : 640 Kbps
Channel(s) : 6 channels
Channel positions : Front: L C R, Side: L R, LFE
Sampling rate : 48.0 KHz
Bit depth : 16 bits
Compression mode : Lossy
Stream size : 771 MiB (7%)
Title : Профессиональный Одноголосый закадровый, Ю.Живов
Language : Russian
Default : No
Forced : No

Audio #4
ID : 5
Format : AC-3
Format/Info : Audio Coding 3
Mode extension : CM (complete main)
Format settings, Endianness : Big
Codec ID : A_AC3
Duration : 2h 48mn
Bit rate mode : Constant
Bit rate : 384 Kbps
Channel(s) : 6 channels
Channel positions : Front: L C R, Side: L R, LFE
Sampling rate : 48.0 KHz
Bit depth : 16 bits
Compression mode : Lossy
Stream size : 462 MiB (4%)
Title : Украинский Многоголосый закадровый
Language : Ukrainian
Default : No
Forced : No

Text
ID : 6
Format : UTF-8
Codec ID : S_TEXT/UTF8
Codec ID/Info : UTF-8 Plain Text
Title : Русские
Language : Russian
Default : No
Forced : No

Menu
00:00:00.000 : en:00:00:00.000
00:05:16.524 : en:00:05:16.524
00:14:49.471 : en:00:14:49.471
00:23:37.207 : en:00:23:37.207
00:34:32.902 : en:00:34:32.902
00:43:39.114 : en:00:43:39.114
00:50:41.204 : en:00:50:41.204
00:59:57.760 : en:00:59:57.760
01:08:49.542 : en:01:08:49.542
01:15:07.252 : en:01:15:07.252
01:25:28.081 : en:01:25:28.081
01:30:30.550 : en:01:30:30.550
01:39:59.326 : en:01:39:59.326
01:51:46.533 : en:01:51:46.533
02:00:18.877 : en:02:00:18.877
02:07:07.453 : en:02:07:07.453
02:16:36.396 : en:02:16:36.396
02:26:16.601 : en:02:26:16.601
02:32:47.449 : en:02:32:47.449
02:43:10.862 : en:02:43:10.862


x264 [info]: frame I:1566 Avg QP:19.85 size:121210
x264 [info]: frame P:50619 Avg QP:20.93 size: 65414
x264 [info]: frame B:189959 Avg QP:22.74 size: 30607

Релиз Группа: & Автор Рипа:

загрузка...
Правила, инструкции, FAQ!!!
Торрент  Добавлен [09 авг 2013, 21:25] Скачать торрент
Скачать торрент
[ Размер 57.98 КБ / Просмотров 12 ]

Статус  
 
Размер  11.5 ГБ
Приватный: Нет (DHT включён)
.torrent скачан  0
Как залить торрент? | Как скачать Torrent? | Как смотреть и слушать онлайн?  


     Отправить личное сообщение
   
Страница 1 из 1
Показать сообщения за:  Поле сортировки  
Начать новую тему Ответить на тему

   Похожие торренты   Автор   Ответы   Просмотры   Последнее сообщение 
В этой теме нет новых непрочитанных сообщений. Скачать торрент Проверен Темный город / Dark City (1998) BDRip 1080p | Режиссерская версия / Director's Cut

в форуме 720p | 1080p, Размер: 5.77 ГБ, Здоровье: 100%

Гость

0
74|11

42
283

19 янв 2015, 21:16

Гость Перейти к последнему сообщению

В этой теме нет новых непрочитанных сообщений. Скачать торрент Проверен 1408 / 1408 (2007) BDRip 1080p | Режиссерская версия / Director's cut

в форуме 720p | 1080p, Размер: 7.91 ГБ, Здоровье: 100%

Anonymous

0
49|7

58
90

09 окт 2014, 16:28

Anonymous Перейти к последнему сообщению

В этой теме нет новых непрочитанных сообщений. Скачать торрент Забирая жизни / Taking Lives (Д. Дж. Карузо / D.J. Caruso) [2004, США, Триллер, BDRip 720p] [Режиссерская версия / Unrated Director's Cut] Dub

в форуме 720p | 1080p, Размер: 6.8 ГБ, Здоровье: 0%

Anonymous

0
0|0

55
0

25 фев 2014, 22:43

Anonymous Перейти к последнему сообщению

В этой теме нет новых непрочитанных сообщений. Скачать торрент Зодиак / Zodiac (Дэвид Финчер / David Fincher) [2007, триллер, драма, криминал, BDRip] [Режиссёрская версия / Director's cut] Dub + AVO (sf@irat)

в форуме Триллеры, Размер: 1.46 ГБ, Здоровье: 100%

Anonymous

0
56|19

111
0

16 фев 2014, 13:08

Anonymous Перейти к последнему сообщению

В этой теме нет новых непрочитанных сообщений. Скачать торрент Хроники Риддика / The Chronicles of Riddick (Дэвид Туи / David Twohy) [2004 г., Фантастика, боевик, триллер, приключения, BDRip-AVC] [Режиссёрская версия / Director's Cut]

в форуме Фантастика, Фэнтези, Размер: 2.17 ГБ, Здоровье: 100%

Anonymous

0
56|19

89
0

25 апр 2014, 08:54

Anonymous Перейти к последнему сообщению



Сейчас этот форум просматривают: нет зарегистрированных пользователей и гости: 1


Вы не можете начинать темы
Вы не можете отвечать на сообщения
Вы не можете редактировать свои сообщения
Вы не можете удалять свои сообщения
Вы не можете добавлять вложения

Перейти:  

!ВНИМАНИЕ!
 Ресурс не предоставляет электронные версии произведений, а занимается лишь коллекционированием и каталогизацией ссылок, присылаемых и публикуемых на форуме нашими читателями. Если вы являетесь правообладателем какого-либо представленного материала и не желаете чтобы ссылка на него находилась в нашем каталоге, свяжитесь с нами и мы незамедлительно удалим её. Файлы для обмена на трекере предоставлены пользователями сайта, и администрация не несёт ответственности за их содержание. Просьба не заливать файлы, защищенные авторскими правами, а также файлы нелегального содержания!