На всех торрентах на трекере установлена скидка на скачивание в размере 100 процентов(а).
 Возможность скачивания торрента НЕ зависит от ограничений при низком ратио, низком аплоаде, требуемом ратио или требуемом аплоаде.


Начать новую тему Ответить на тему
Статистика раздачи
Размер: 2.61 ГБ | Добавлен: 09 авг 2013, 12:15 | Скачали: 146
Сидеров: 146  [0 байт/сек]    Личеров: 7  [0 байт/сек]
Пред. тема | След. тема 

Автор
Сообщение

СообщениеДобавлено: 09 авг 2013, 12:15 

Название ... : Книга Илая
Оригинальное название ... : The Book of Eli
Страна ... : США
Жанр ............. : Триллер | Боевик | Драма
Режиссер ... : Альберт Хьюз, Аллен Хьюз
Перевод ... : Дубляж (Профессиональный[Лицензия]) + Оригинал (Английский)
Субтитры ... : Русские / Английские UTF-8 (full)
Навигация по главам...: есть

В ролях:

Дензел Вашингтон .... Eli
Гари Олдман .... Carnegie
Мила Кунис .... Solara
Рэй Стивенсон .... Redridge
Малкольм МакДауэлл .... Lombardi
Описание:

После мировой катастрофы Америка превратилась в выжженную пустыню. По бескрайним дорогам, кишащим бандами, враждующими между собой за воду и еду, странствует мудрый Илай. Однажды он прибывает в мрачные края, где когда-то была цветущая Калифорния, а теперь это сущий ад, где бесчинствует тиран Карнеги.




Год выхода ............. : 2010
Формат ................. : Mkv
Продолжительность ...... : 1 hour 57 mins 36 Secs
Битрейт .. : ~ 1 837 Kbps
Профиль формата.....: High/Level 4.1
Идентификатор кодека ....... : MPEG-4 AVC
Ширина ....... : 1280 Pixels
Высота ....... : 534 Pixels
Частота кадров ............ : 23.976 fps
Соотношение сторон ........ : 2.40:1
Аудио кодек /Битрейт ....... : AC3 / 640 Kbps
Канальность / Частота ..... : 6 channels / 48.0 KHz
Исходник ......... : The Book of Eli (2010) Blu-ray 1080p AVC DTS-HD 5.1

Релиз группа: | by AVT83

x264 [info]: frame I:1233 Avg QP:15.40 size: 63044
x264 [info]: frame P:37564 Avg QP:17.61 size: 20571
x264 [info]: frame B:130379 Avg QP:20.79 size: 6333
x264 [info]: consecutive B-frames: 1.9% 2.5% 6.9% 33.8% 14.1% 24.2% 6.1% 10.5%
--------------------------------------------------------------------------------
Format : Matroska
Format version : Version 2
File size : 2.61 GiB
Duration : 1h 57mn
Overall bit rate : 3 180 Kbps
Movie name : avt83@DHT-Movies
Encoded date : UTC 2013-08-09 01:56:54
Writing application : mkvmerge v4.0.0 ('The Stars were mine') built on Jun 6 2010 16:18:42
Writing library : libebml v1.0.0 + libmatroska v1.0.0

Video
ID : 1
Format : AVC
Format/Info : Advanced Video Codec
Format profile : High@L4.1
Format settings, CABAC : Yes
Format settings, ReFrames : 12 frames
Codec ID : V_MPEG4/ISO/AVC
Duration : 1h 57mn
Bit rate : 1 837 Kbps
Width : 1 280 pixels
Height : 534 pixels
Display aspect ratio : 2.40:1
Frame rate mode : Constant
Frame rate : 23.976 fps
Color space : YUV
Chroma subsampling : 4:2:0
Bit depth : 8 bits
Scan type : Progressive
Bits/(Pixel*Frame) : 0.112
Stream size : 1.51 GiB (58%)
Writing library : x264 core 136 r2348+704+51 d1baef6 tMod [8-bit@all X86]
Encoding settings : cabac=1 / ref=12 / deblock=1:-2:-1 / analyse=0x3:0x113 / me=umh / subme=11 / psy=1 / fade_compensate=0.00 / psy_rd=0.95:0.00 / mixed_ref=1 / me_range=24 / chroma_me=1 / trellis=2 / 8x8dct=1 / cqm=0 / deadzone=21,11 / fast_pskip=0 / chroma_qp_offset=-2 / threads=6 / lookahead_threads=1 / sliced_threads=0 / nr=0 / decimate=1 / interlaced=0 / bluray_compat=0 / constrained_intra=0 / fgo=0 / bframes=7 / b_pyramid=2 / b_adapt=2 / b_bias=0 / direct=1 / weightb=1 / open_gop=0 / weightp=2 / keyint=240 / keyint_min=23 / scenecut=40 / intra_refresh=0 / rc=crf / mbtree=0 / crf=18.0000 / qcomp=0.60 / qpmin=0:0:0 / qpmax=69:69:69 / qpstep=4 / ip_ratio=1.40 / pb_ratio=1.30 / aq=2:0.90 / aq-sensitivity=10.00 / aq-factor=1.00:1.00:1.00 / aq2=0 / aq3=0
Language : English
Default : No
Forced : No

Audio #1
ID : 2
Format : AC-3
Format/Info : Audio Coding 3
Mode extension : CM (complete main)
Format settings, Endianness : Big
Codec ID : A_AC3
Duration : 1h 57mn
Bit rate mode : Constant
Bit rate : 640 Kbps
Channel(s) : 6 channels
Channel positions : Front: L C R, Side: L R, LFE
Sampling rate : 48.0 KHz
Bit depth : 16 bits
Compression mode : Lossy
Stream size : 539 MiB (20%)
Title : Дубляж
Language : Russian
Default : Yes
Forced : No

Audio #2
ID : 3
Format : AC-3
Format/Info : Audio Coding 3
Mode extension : CM (complete main)
Format settings, Endianness : Big
Codec ID : A_AC3
Duration : 1h 57mn
Bit rate mode : Constant
Bit rate : 640 Kbps
Channel(s) : 6 channels
Channel positions : Front: L C R, Side: L R, LFE
Sampling rate : 48.0 KHz
Bit depth : 16 bits
Compression mode : Lossy
Stream size : 539 MiB (20%)
Title : Оригинал
Language : English
Default : No
Forced : No

Text #1
ID : 4
Format : UTF-8
Codec ID : S_TEXT/UTF8
Codec ID/Info : UTF-8 Plain Text
Title : full
Language : Russian
Default : Yes
Forced : No

Text #2
ID : 5
Format : UTF-8
Codec ID : S_TEXT/UTF8
Codec ID/Info : UTF-8 Plain Text
Title : full
Language : English
Default : No
Forced : No

Menu
00:00:00.000 : en:00:00:00.000
00:08:20.208 : en:00:08:20.208
00:15:40.648 : en:00:15:40.648
00:21:36.337 : en:00:21:36.337
00:27:44.997 : en:00:27:44.997
00:33:24.169 : en:00:33:24.169
00:39:14.519 : en:00:39:14.519
00:45:21.886 : en:00:45:21.886
00:54:17.296 : en:00:54:17.296
01:02:05.805 : en:01:02:05.805
01:11:50.848 : en:01:11:50.848
01:20:52.598 : en:01:20:52.598
01:29:36.413 : en:01:29:36.413
01:36:44.048 : en:01:36:44.048
01:41:12.984 : en:01:41:12.984
01:45:08.552 : en:01:45:08.552

загрузка...
Правила, инструкции, FAQ!!!
Торрент  Добавлен [09 авг 2013, 12:15] Скачать торрент
Скачать торрент
[ Размер 13.51 КБ / Просмотров 14 ]

Статус  
 
Размер  2.61 ГБ
Приватный: Нет (DHT включён)
.torrent скачан  146
Как залить торрент? | Как скачать Torrent? | Как смотреть и слушать онлайн?  


     Отправить личное сообщение
   
Страница 1 из 1
Показать сообщения за:  Поле сортировки  
Начать новую тему Ответить на тему

   Похожие торренты   Автор   Ответы   Просмотры   Последнее сообщение 
В этой теме нет новых непрочитанных сообщений. Скачать торрент Проверен [iPad] Книга Илая / The Book of Eli (Альберт Хьюз / Albert Hughes, Аллен Хьюз / Allen Hughes) [2010, боевик, триллер, драма, BDRip, 720p]

в форуме Фильмы для iPod, iPhone, iPad, Размер: 3.11 ГБ, Здоровье: 100%

Anonymous

0
14|4

28
0

11 май 2015, 01:40

Anonymous Перейти к последнему сообщению

В этой теме нет новых непрочитанных сообщений. Скачать торрент Книга Илая / The Book of Eli (Альберт Хьюз, Аллен Хьюз / Albert Hughes, Allen Hughes) [2010 г., боевик, триллер, драма, приключения, вестерн, BDRip-AVC] Dub + AVO (Гаврилов) + Original + Sub (rus, eng) + Comment

в форуме 720p | 1080p, Размер: 2.86 ГБ, Здоровье: 100%

Anonymous

0
1|0

36
0

07 фев 2014, 11:40

Anonymous Перейти к последнему сообщению

В этой теме нет новых непрочитанных сообщений. Скачать торрент Проверен Книга жизни / The Book of Life (2014) BDRip 720p | L

в форуме Зарубежные мультфильмы (HD Video), Размер: 4.54 ГБ, Здоровье: 100%

Гость

0
150|121

219
396

18 янв 2015, 11:52

Гость Перейти к последнему сообщению

В этой теме нет новых непрочитанных сообщений. Скачать торрент Проверен Holiday dessert bake-off. 2010 recipe book (Праздничные десерты и выпечка. Книга рецептов 2010-го года) [2010, PDF, ENG]

в форуме Кулинария, Размер: 83.61 МБ, Здоровье: ???%

Anonymous

0
0|1

4
0

19 окт 2016, 23:06

Anonymous Перейти к последнему сообщению

В этой теме нет новых непрочитанных сообщений. Скачать торрент Проверен Книга жизни / The Book of Life (2014) BDRip [576p] iPad

в форуме Фильмы для iPod, iPhone, iPad, Размер: 1.68 ГБ, Здоровье: 100%

Гость

0
8|1

36
0

13 сен 2015, 00:41

Гость Перейти к последнему сообщению



Сейчас этот форум просматривают: нет зарегистрированных пользователей и гости: 3


Вы не можете начинать темы
Вы не можете отвечать на сообщения
Вы не можете редактировать свои сообщения
Вы не можете удалять свои сообщения
Вы не можете добавлять вложения

Перейти:  

!ВНИМАНИЕ!
 Ресурс не предоставляет электронные версии произведений, а занимается лишь коллекционированием и каталогизацией ссылок, присылаемых и публикуемых на форуме нашими читателями. Если вы являетесь правообладателем какого-либо представленного материала и не желаете чтобы ссылка на него находилась в нашем каталоге, свяжитесь с нами и мы незамедлительно удалим её. Файлы для обмена на трекере предоставлены пользователями сайта, и администрация не несёт ответственности за их содержание. Просьба не заливать файлы, защищенные авторскими правами, а также файлы нелегального содержания!