На всех торрентах на трекере установлена скидка на скачивание в размере 100 процентов(а).
 Возможность скачивания торрента НЕ зависит от ограничений при низком ратио, низком аплоаде, требуемом ратио или требуемом аплоаде.


Начать новую тему Ответить на тему
Статистика раздачи
Размер: 10.41 ГБ | Добавлен: 07 авг 2013, 06:33 | Скачали: 1
Сидеров: 1  [0 байт/сек]    Личеров: 0  [0 байт/сек]
Пред. тема | След. тема 

Автор
Сообщение

СообщениеДобавлено: 07 авг 2013, 06:33 

Название: Транс
Оригинальное название: Trance (Trans)
Год выпуска: 2013
Жанр: Триллер, драма, криминал, детектив
Выпущено: Великобритания, Франция, Cloud Eight Films, Decibel Films, Film4
Режиссер: Дэнни Бойл

В ролях: Джеймс МакЭвой, Венсан Кассель, Розарио Доусон, Дэнни Сапани, Мэттью Кросс, Вахаб Ахмед Шейх, Марк Полтимор, Таппенс Мидлтон, Саймон Кунц, Майкл Шэйффер

О фильме: Аукционер Саймон не в силах противостоять искушению — вступает в сговор с бандой грабителей и организует похищение уникального лота стоимостью в миллионы долларов. Однако налет оканчивается не совсем так, как он предполагал вначале. Аукционера оглушают ударом тупого предмета по голове, в результате которого он теряет какие бы то ни было воспоминания о том, что произошло. Разумеется, он также забывает, куда спрятал ценную картину. Пытками добиться ответа от ничего не понимающего Саймона не удается. Тогда главарь банды решает нанять психотерапевта, чтобы она смогла выудить ценную информацию из поврежденного мозга заложника. По мере того, как девушка пробивается сквозь нейронную защиту, ставки растут как на дрожжах. Границы между страстью и жестокостью, реальностью и вымыслом тускнеют и вовсе готовы испариться. В конечном итоге становится не ясно — кто же у кого в заложниках?




Качество: BDRip (1080p)
Видео: MPEG-4 AVC, 12424 Кбит/с, 1920x800
Аудио: Русский (DTS, 6 ch, 768 Кбит/с), английский (DTS-ES, 6 ch, 1536 Кбит/с)
Размер: 10.41 ГБ
Продолжительность: 01:41:19
Перевод: Дублированный [лицензия]
Субтитры: Русские, румынские, английские
Trance.2013.1080p.BluRay.DTS.Rus.Eng.Sub.x264-DON.mkv

Format : Matroska
Format version : Version 2
File size : 10.4 GiB
Duration : 1h 41mn
Overall bit rate : 14.7 Mbps
Encoded date : UTC 2013-08-06 21:35:40
Writing application : mkvmerge v5.4.0 ('Piper')
built on Mar 10 2012 13:34:39
Writing library : libebml v1.2.3 + libmatroska v1.3.0

Video
ID : 1
Format : AVC
Format/Info : Advanced Video Codec
Format profile : High@L4.1
Format settings, CABAC : Yes
Format settings, ReFrames : 5 frames
Codec ID : V_MPEG4/ISO/AVC
Duration : 1h 41mn
Bit rate : 12.1 Mbps
Width : 1 920 pixels
Height : 800 pixels
Display aspect ratio : 2.40:1
Frame rate : 23.976 fps
Color space : YUV
Chroma subsampling : 4:2:0
Bit depth : 8 bits
Scan type : Progressive
Bits/(Pixel*Frame) : 0.330
Stream size : 8.60 GiB (83%)
Title : x264 @ DON
Writing library : x264 core 135 r2345kMod f0c1c53
Encoding settings : cabac=1 / ref=5 / deblock=1:-3:-3 / analyse=0x3:0x133
/ me=umh / subme=11 / psy=1 / fade_compensate=0.00 / psy_rd=0.90:0.00 / mixed_ref=1
/ me_range=24 / chroma_me=1 / trellis=2 / 8x8dct=1 / cqm=0 / deadzone=21,11 / fast_pskip=0
/ chroma_qp_offset=-2 / threads=3 / lookahead_threads=1 / sliced_threads=0 / nr=0 / decimate=0
/ interlaced=0 / bluray_compat=0 / constrained_intra=0 / bframes=8 / b_pyramid=2 / b_adapt=2
/ b_bias=0 / direct=3 / weightb=1 / open_gop=0 / weightp=2 / keyint=250 / keyint_min=23
/ scenecut=40 / intra_refresh=0 / rc_lookahead=60 / rc=crf / mbtree=0 / crf=17.2000
/ qcomp=0.75 / qpmin=0 / qpmax=69 / qpstep=4 / vbv_maxrate=50000 / vbv_bufsize=62500
/ crf_max=0.0 / nal_hrd=none / ip_ratio=1.30 / pb_ratio=1.20 / aq=3:0.60
Language : English
Default : No
Forced : No

Audio #1
ID : 2
Format : DTS
Format/Info : Digital Theater Systems
Codec ID : A_DTS
Duration : 1h 41mn
Bit rate mode : Constant
Bit rate : 755 Kbps
Channel(s) : 6 channels
Channel positions : Front: L C R, Side: L R, LFE
Sampling rate : 48.0 KHz
Bit depth : 24 bits
Compression mode : Lossy
Stream size : 547 MiB (5%)
Title : BluRay CEE
Language : Russian
Default : Yes
Forced : No

Audio #2
ID : 3
Format : DTS
Format/Info : Digital Theater Systems
Format profile : ES
Codec ID : A_DTS
Duration : 1h 41mn
Bit rate mode : Constant
Bit rate : 1 510 Kbps
Channel(s) : 6 channels
Channel positions : Front: L C R, Side: L R, LFE
Sampling rate : 48.0 KHz
Bit depth : 24 bits
Compression mode : Lossy
Delay relative to video : 11ms
Stream size : 1.07 GiB (10%)
Title : DTS 5.1@ 1536 kbps
Language : English
Default : No
Forced : No

Text #1
ID : 4
Format : UTF-8
Codec ID : S_TEXT/UTF8
Codec ID/Info : UTF-8 Plain Text
Title : iTunes
Language : Russian
Default : No
Forced : No

Text #2
ID : 5
Format : UTF-8
Codec ID : S_TEXT/UTF8
Codec ID/Info : UTF-8 Plain Text
Language : Romanian
Default : No
Forced : No

Text #3
ID : 6
Format : UTF-8
Codec ID : S_TEXT/UTF8
Codec ID/Info : UTF-8 Plain Text
Title : Blu-ray
Language : English
Default : No
Forced : No

Text #4
ID : 7
Format : UTF-8
Codec ID : S_TEXT/UTF8
Codec ID/Info : UTF-8 Plain Text
Title : Blu-ray_SDH
Language : English
Default : No
Forced : No

Text #5
ID : 8
Format : UTF-8
Codec ID : S_TEXT/UTF8
Codec ID/Info : UTF-8 Plain Text
Title : Blu-ray_SDH-COLORED
Language : English
Default : No
Forced : No

Menu
00:00:00.000 : en:Chapter 1
00:04:05.871 : en:Chapter 2
00:08:18.832 : en:Chapter 3
00:10:09.859 : en:Chapter 4
00:13:06.786 : en:Chapter 5
00:15:42.650 : en:Chapter 6
00:17:33.678 : en:Chapter 7
00:21:57.274 : en:Chapter 8
00:23:46.634 : en:Chapter 9
00:25:54.720 : en:Chapter 10
00:28:11.398 : en:Chapter 11
00:31:08.533 : en:Chapter 12
00:33:40.644 : en:Chapter 13
00:36:31.272 : en:Chapter 14
00:39:10.723 : en:Chapter 15
00:41:49.340 : en:Chapter 16
00:45:58.881 : en:Chapter 17
00:51:51.483 : en:Chapter 18
00:59:00.287 : en:Chapter 19
01:02:10.894 : en:Chapter 20
01:08:08.584 : en:Chapter 21
01:12:06.822 : en:Chapter 22
01:14:36.138 : en:Chapter 23
01:16:13.152 : en:Chapter 24
01:25:36.548 : en:Chapter 25
01:28:16.291 : en:Chapter 26
01:31:34.781 : en:Chapter 27
01:35:32.769 : en:Chapter 28




Релиз от: Ciumac
загрузка...
Правила, инструкции, FAQ!!!
Торрент  Добавлен [07 авг 2013, 06:33] Скачать торрент
Скачать торрент
[ Размер 52.41 КБ / Просмотров 11 ]

Статус  
 
Размер  10.41 ГБ
Приватный: Нет (DHT включён)
.torrent скачан  1
Как залить торрент? | Как скачать Torrent? | Как смотреть и слушать онлайн?  


     Отправить личное сообщение
   
Страница 1 из 1
Показать сообщения за:  Поле сортировки  
Начать новую тему Ответить на тему

   Похожие торренты   Автор   Ответы   Просмотры   Последнее сообщение 
В этой теме нет новых непрочитанных сообщений. Скачать торрент Владение 18 (2013) BDRip 1080p | Лицензия

в форуме 720p | 1080p, Размер: 7.01 ГБ, Здоровье: 100%

Anonymous

0
28|1

37
351

12 апр 2014, 13:52

Anonymous Перейти к последнему сообщению

В этой теме нет новых непрочитанных сообщений. Скачать торрент Два ствола / 2 Guns (2013) BDRip 1080p | Лицензия | D, P, A

в форуме 720p | 1080p, Размер: 14.08 ГБ, Здоровье: 0%

Anonymous

0
0|0

33
0

19 дек 2013, 09:00

Anonymous Перейти к последнему сообщению

В этой теме нет новых непрочитанных сообщений. Скачать торрент Советник / The Counselor (2013) BDRip 1080p | Лицензия

в форуме 720p | 1080p, Размер: 12.49 ГБ, Здоровье: 0%

Anonymous

0
0|0

41
0

31 янв 2014, 18:41

Anonymous Перейти к последнему сообщению

В этой теме нет новых непрочитанных сообщений. Скачать торрент Олдбой / Oldboy (2013) BDRip 1080p | Лицензия

в форуме 720p | 1080p, Размер: 11.35 ГБ, Здоровье: 0%

Anonymous

0
0|0

18
0

16 фев 2014, 00:50

Anonymous Перейти к последнему сообщению

В этой теме нет новых непрочитанных сообщений. Скачать торрент Колония / The Colony (2013) BDRip 1080p | Лицензия

в форуме 720p | 1080p, Размер: 7.15 ГБ, Здоровье: 0%

Anonymous

0
0|0

17
0

24 фев 2014, 10:35

Anonymous Перейти к последнему сообщению



Сейчас этот форум просматривают: Google [Bot] и гости: 1


Вы не можете начинать темы
Вы не можете отвечать на сообщения
Вы не можете редактировать свои сообщения
Вы не можете удалять свои сообщения
Вы не можете добавлять вложения

Перейти:  

!ВНИМАНИЕ!
 Ресурс не предоставляет электронные версии произведений, а занимается лишь коллекционированием и каталогизацией ссылок, присылаемых и публикуемых на форуме нашими читателями. Если вы являетесь правообладателем какого-либо представленного материала и не желаете чтобы ссылка на него находилась в нашем каталоге, свяжитесь с нами и мы незамедлительно удалим её. Файлы для обмена на трекере предоставлены пользователями сайта, и администрация не несёт ответственности за их содержание. Просьба не заливать файлы, защищенные авторскими правами, а также файлы нелегального содержания!