На всех торрентах на трекере установлена скидка на скачивание в размере 100 процентов(а).
 Возможность скачивания торрента НЕ зависит от ограничений при низком ратио, низком аплоаде, требуемом ратио или требуемом аплоаде.


Начать новую тему Ответить на тему
Статистика раздачи
Размер: 7.76 ГБ | Добавлен: 05 авг 2013, 23:17 | Скачали: 665
Сидеров: 76  [0 байт/сек]    Личеров: 7  [0 байт/сек]
Пред. тема | След. тема 

Автор
Сообщение

СообщениеДобавлено: 05 авг 2013, 23:17 

Название: Славные парни
Оригинальное название: Goodfellas
Год выхода: 1990
Жанр: триллер, драма, криминал, биография
Режиссер: Мартин Скорсезе

В ролях: Роберт Де Ниро, Рэй Лиотта, Джо Пеши, Лоррэйн Бракко, Пол Сорвино, Чак Лоу, Фрэнк ДиЛео, Фрэнк Сиверо, Тони Дэрроу, Майк Старр, Фрэнк Винсент, Фрэнк Адонис, Кэтрин Скорсезе, Джина Мастроджакомо, Сюзанн Шеперд, Деби Мазар

О фильме:
Генри Хилл — начинающий гангстер, занимающийся грабежами вместе с Джими Конвеем и Томми Де Вито, которые с легкостью убивают любого, кто встает у них на пути восхождения к вершинам Мафии. Приходит время когда Генри, сам пострадавший от своих напарников, должен приложить руку к началу конца Джими и Томми…



Выпущено: США
Продолжительность: 02:25:27
Перевод: Дублированный (R5)+ Дублированный (Варус видео) + Оригинал


Кодек: x264
Качество: BDRip 1080p
Видео: 1920x1080, 6552 Kbps, 23.976 fps
Аудио #1: AC-3, 6 ch, 384 kbps (Rus) (R5)
Аудио #2: AC-3, 2 ch, 256 kbps (Rus) (Варус видео)
Аудио #4: AC-3, 6 ch, 448 kbps (Eng)
Субтитры: русские, английские

Общее
Уникальный идентификатор : 226483825779515682069298775040739418159 (0xAA6332BD2854FB86B9E009275A3AA02F)
Полное имя : Славные парни.1990.BDRip.1080p.Rus.Eng.mkv
Формат : Matroska
Версия формата : Version 2
Размер файла : 7,76 Гбайт
Продолжительность : 2 ч. 25 м.
Общий поток : 7638 Кбит/сек
Название фильма : Славные парни.1990
Дата кодирования : UTC 2013-08-05 16:04:54
Программа кодирования : mkvmerge v5.8.0 ('No Sleep / Pillow') built on Sep 2 2012 15:37:04
Библиотека кодирования : libebml v1.2.3 + libmatroska v1.3.0

Видео
Идентификатор : 1
Формат : AVC
Формат/Информация : Advanced Video Codec
Профиль формата : High@L4.1
Параметр CABAC формата : Да
Параметр ReFrames формата : 4 кадра
Идентификатор кодека : V_MPEG4/ISO/AVC
Продолжительность : 2 ч. 25 м.
Битрейт : 6552 Кбит/сек
Ширина : 1920 пикселей
Высота : 1080 пикселей
Соотношение сторон : 16:9
Режим частоты кадров : Постоянный
Частота кадров : 23,976 кадра/сек
Цветовое пространство : YUV
Субдискретизация насыщенности : 4:2:0
Битовая глубина : 8 бит
Тип развёртки : Прогрессивная
Бит/(Пиксели*Кадры) : 0.132
Размер потока : 6,50 Гбайт (84%)
Заголовок : Rip by Boriy
Библиотека кодирования : x264 core 135 r2345 f0c1c53
Настройки программы : cabac=1 / ref=4 / deblock=1:-3:-3 / analyse=0x3:0x113 / me=umh / subme=11 / psy=1 / psy_rd=1.00:0.00 / mixed_ref=1 / me_range=32 / chroma_me=1 / trellis=2 / 8x8dct=1 / cqm=0 / deadzone=21,11 / fast_pskip=0 / chroma_qp_offset=-2 / threads=12 / lookahead_threads=1 / sliced_threads=0 / nr=0 / decimate=0 / interlaced=0 / bluray_compat=0 / constrained_intra=0 / bframes=6 / b_pyramid=2 / b_adapt=2 / b_bias=0 / direct=3 / weightb=1 / open_gop=0 / weightp=2 / keyint=240 / keyint_min=23 / scenecut=40 / intra_refresh=0 / rc=2pass / mbtree=0 / bitrate=6552 / ratetol=1.0 / qcomp=0.60 / qpmin=0 / qpmax=69 / qpstep=4 / cplxblur=20.0 / qblur=0.5 / ip_ratio=1.40 / pb_ratio=1.30 / aq=1:0.90
Язык : English
Default : Да
Forced : Нет

Аудио #1
Идентификатор : 2
Формат : AC-3
Формат/Информация : Audio Coding 3
Расширение режима : CM (complete main)
Параметр Endianness формата : Big
Идентификатор кодека : A_AC3
Продолжительность : 2 ч. 25 м.
Вид битрейта : Постоянный
Битрейт : 384 Кбит/сек
Каналы : 6 каналов
Расположение каналов : Front: L C R, Side: L R, LFE
Частота : 48,0 КГц
Битовая глубина : 16 бит
Метод сжатия : С потерями
Размер потока : 400 Мбайт (5%)
Заголовок : Дубляж (R5)
Язык : Russian
Default : Да
Forced : Нет

Аудио #2
Идентификатор : 3
Формат : AC-3
Формат/Информация : Audio Coding 3
Расширение режима : CM (complete main)
Параметр Endianness формата : Big
Идентификатор кодека : A_AC3
Продолжительность : 2 ч. 25 м.
Вид битрейта : Постоянный
Битрейт : 256 Кбит/сек
Каналы : 2 канала
Расположение каналов : Front: L R
Частота : 48,0 КГц
Битовая глубина : 16 бит
Метод сжатия : С потерями
Размер потока : 266 Мбайт (3%)
Заголовок : Дубляж (Варус видео)
Язык : Russian
Default : Нет
Forced : Нет

Аудио #3
Идентификатор : 4
Формат : AC-3
Формат/Информация : Audio Coding 3
Расширение режима : CM (complete main)
Параметр Endianness формата : Big
Идентификатор кодека : A_AC3
Продолжительность : 2 ч. 25 м.
Вид битрейта : Постоянный
Битрейт : 448 Кбит/сек
Каналы : 6 каналов
Расположение каналов : Front: L C R, Side: L R, LFE
Частота : 48,0 КГц
Битовая глубина : 16 бит
Метод сжатия : С потерями
Размер потока : 466 Мбайт (6%)
Заголовок : Оригинал
Язык : English
Default : Нет
Forced : Нет

Текст #1
Идентификатор : 5
Формат : UTF-8
Идентификатор кодека : S_TEXT/UTF8
Идентификатор кодека/Информация : UTF-8 Plain Text
Язык : Russian
Default : Нет
Forced : Нет

Текст #2
Идентификатор : 6
Формат : UTF-8
Идентификатор кодека : S_TEXT/UTF8
Идентификатор кодека/Информация : UTF-8 Plain Text
Язык : English
Default : Нет
Forced : Нет

Меню
00:00:00.000 : :Chapter 1
00:02:42.912 : :Chapter 2
00:05:49.432 : :Chapter 3
00:07:36.539 : :Chapter 4
00:09:08.464 : :Chapter 5
00:10:48.731 : :Chapter 6
00:13:28.557 : :Chapter 7
00:15:01.817 : :Chapter 8
00:16:38.580 : :Chapter 9
00:19:43.098 : :Chapter 10
00:23:46.341 : :Chapter 11
00:28:39.634 : :Chapter 12
00:31:32.640 : :Chapter 13
00:34:36.157 : :Chapter 14
00:35:43.391 : :Chapter 15
00:37:21.155 : :Chapter 16
00:41:27.568 : :Chapter 17
00:44:26.413 : :Chapter 18
00:48:56.016 : :Chapter 19
00:52:04.371 : :Chapter 20
00:57:07.340 : :Chapter 21
01:01:10.249 : :Chapter 22
01:03:46.239 : :Chapter 23
01:06:23.229 : :Chapter 24
01:07:43.476 : :Chapter 25
01:12:32.264 : :Chapter 26
01:15:43.288 : :Chapter 27
01:18:39.297 : :Chapter 28
01:20:02.714 : :Chapter 29
01:23:05.397 : :Chapter 30
01:25:37.715 : :Chapter 31
01:28:14.372 : :Chapter 32
01:30:29.841 : :Chapter 33
01:33:20.845 : :Chapter 34
01:37:52.449 : :Chapter 35
01:40:01.745 : :Chapter 36
01:42:51.415 : :Chapter 37
01:46:34.137 : :Chapter 38
01:49:14.297 : :Chapter 39
01:53:21.544 : :Chapter 40
02:03:56.178 : :Chapter 41
02:07:18.714 : :Chapter 42
02:09:29.678 : :Chapter 43
02:12:00.829 : :Chapter 44
02:15:02.010 : :Chapter 45
02:18:47.402 : :Chapter 46
02:20:32.841 : :Chapter 47
02:25:27.260 : :Chapter 48
x264 [info]: frame I:1233 Avg QP:18.22 size:135629
x264 [info]: frame P:45987 Avg QP:21.33 size: 63221
x264 [info]: frame B:162031 Avg QP:23.39 size: 25111
загрузка...
Правила, инструкции, FAQ!!!
Торрент  Добавлен [05 авг 2013, 23:17] Скачать торрент
Скачать торрент
[ Размер 39.24 КБ / Просмотров 5 ]

Статус  
 
Размер  7.76 ГБ
Приватный: Нет (DHT включён)
.torrent скачан  665
Как залить торрент? | Как скачать Torrent? | Как смотреть и слушать онлайн?  


     Отправить личное сообщение
   
Страница 1 из 1
Показать сообщения за:  Поле сортировки  
Начать новую тему Ответить на тему

   Похожие торренты   Автор   Ответы   Просмотры   Последнее сообщение 
В этой теме нет новых непрочитанных сообщений. Скачать торрент Проверен Славные парни / Goodfellas (1990) BDRip | D

в форуме Криминал, Размер: 2.91 ГБ, Здоровье: 100%

Anonymous

0
120|14

246
435

22 май 2015, 00:39

Anonymous Перейти к последнему сообщению

В этой теме нет новых непрочитанных сообщений. Скачать торрент Проверен Славные парни / The Nice Guys (2016) BDRip 1080p | iTunes

в форуме 720p | 1080p, Размер: 9.06 ГБ, Здоровье: 20%

Гость

0
44|211

229
1

07 авг 2016, 09:07

Гость Перейти к последнему сообщению

В этой теме нет новых непрочитанных сообщений. Скачать торрент Проверен Славные парни / The Nice Guys (2016) BDRip 720p | iTunes

в форуме 720p | 1080p, Размер: 5.78 ГБ, Здоровье: 32%

Гость

0
74|227

232
34

07 авг 2016, 09:11

Гость Перейти к последнему сообщению

В этой теме нет новых непрочитанных сообщений. Скачать торрент Проверен Славные парни / The Nice Guys (2016) WEB-DLRip | iTunes

в форуме Криминал, Размер: 1.45 ГБ, Здоровье: 100%

Гость

0
680|414

602
132

29 июл 2016, 22:15

Гость Перейти к последнему сообщению

В этой теме нет новых непрочитанных сообщений. Скачать торрент Парни Южного Централа / Ребята с улицы / Парни с соседнего двора / Boyz N The Hood (Джон Синглтон / John Singleton) [1991, США, драма, криминал, BDRip-AVC] MVO ТНТ (Россия) + AVO Гаврилов Original Eng

в форуме 720p | 1080p, Размер: 2.87 ГБ, Здоровье: 100%

Anonymous

0
35|9

122
3

01 фев 2014, 19:06

Anonymous Перейти к последнему сообщению



Сейчас этот форум просматривают: нет зарегистрированных пользователей и гости: 1


Вы не можете начинать темы
Вы не можете отвечать на сообщения
Вы не можете редактировать свои сообщения
Вы не можете удалять свои сообщения
Вы не можете добавлять вложения

Перейти:  

!ВНИМАНИЕ!
 Ресурс не предоставляет электронные версии произведений, а занимается лишь коллекционированием и каталогизацией ссылок, присылаемых и публикуемых на форуме нашими читателями. Если вы являетесь правообладателем какого-либо представленного материала и не желаете чтобы ссылка на него находилась в нашем каталоге, свяжитесь с нами и мы незамедлительно удалим её. Файлы для обмена на трекере предоставлены пользователями сайта, и администрация не несёт ответственности за их содержание. Просьба не заливать файлы, защищенные авторскими правами, а также файлы нелегального содержания!